<?xml version="1.0" standalone="no"?>
<!DOCTYPE svg PUBLIC "-//W3C//DTD SVG 1.1//EN" "http://www.w3.org/Graphics/SVG/1.1/DTD/svg11.dtd" >
<svg xmlns="http://www.w3.org/2000/svg">
<metadata></metadata>
<defs>
<font id="graphikmedium" horiz-adv-x="1667" >
<font-face units-per-em="2048" ascent="1681" descent="-367" />
<missing-glyph horiz-adv-x="487" />
<glyph horiz-adv-x="0" />
<glyph horiz-adv-x="682" />
<glyph unicode=" "  horiz-adv-x="487" />
<glyph unicode="&#x09;" horiz-adv-x="487" />
<glyph unicode="&#xa0;" horiz-adv-x="487" />
<glyph unicode="!" horiz-adv-x="624" d="M147 143q0 67 48 113.5t116 46.5q69 0 117.5 -46.5t48.5 -113.5q0 -66 -48.5 -111.5t-117.5 -45.5q-68 0 -116 45.5t-48 111.5zM176 1464h277l-39 -1024h-201z" />
<glyph unicode="&#x22;" horiz-adv-x="837" d="M109 1464h247l-34 -526h-179zM481 1464h248l-35 -526h-176z" />
<glyph unicode="#" horiz-adv-x="1089" d="M70 545v200h188l33 226h-168v194h196l46 299h180l-43 -299h170l45 299h182l-45 -299h166v-194h-195l-32 -226h174v-200h-205l-49 -342h-183l50 342h-170l-50 -342h-182l49 342h-157zM440 745h170l33 226h-170z" />
<glyph unicode="$" horiz-adv-x="1300" d="M76 453h254q7 -55 20 -95.5t40.5 -79.5t76.5 -63t119 -33v461q-236 40 -348.5 136.5t-112.5 285.5q0 171 126.5 287t334.5 129v184h137v-186q201 -19 318 -123.5t135 -292.5h-242q-18 95 -68.5 148.5t-142.5 68.5v-420q243 -39 361 -135t118 -293q0 -184 -129 -309.5 t-350 -140.5v-258h-137v258q-128 9 -224 48.5t-155.5 104t-91 143.5t-39.5 175zM367 1087q0 -85 45 -131.5t174 -72.5v403q-103 -12 -161 -66.5t-58 -132.5zM723 182q103 14 165 75t62 151t-48 137t-179 76v-439z" />
<glyph unicode="%" horiz-adv-x="1640" d="M61 1122q0 152 105 254.5t254 102.5t251.5 -100.5t102.5 -252.5q0 -154 -102 -256t-254 -102q-151 0 -254 101t-103 253zM262 0l944 1464h172l-942 -1464h-174zM262 1124q0 -92 42.5 -141t115.5 -49q72 0 113.5 50t41.5 140q0 89 -41.5 140t-113.5 51q-73 0 -115.5 -50 t-42.5 -141zM866 334q0 152 104 254t253 102q150 0 253 -100t103 -252q0 -154 -103 -256t-255 -102q-151 0 -253 101t-102 253zM1065 336q0 -92 42.5 -141.5t115.5 -49.5q72 0 113.5 50.5t41.5 140.5q0 89 -41.5 139.5t-113.5 50.5q-73 0 -115.5 -49.5t-42.5 -140.5z" />
<glyph unicode="&#x26;" horiz-adv-x="1466" d="M90 399q0 152 85 255.5t245 179.5q-115 150 -115 288q0 111 57 193.5t147.5 122t199.5 39.5q156 0 262 -87t106 -231q0 -241 -305 -373l258 -315l150 287h223l-240 -459l246 -299h-313l-123 150q-164 -168 -402 -168q-216 0 -348.5 113.5t-132.5 303.5zM348 426 q0 -111 66.5 -175.5t185.5 -64.5q143 0 246 121l-311 379q-91 -46 -139 -105t-48 -155zM547 1120q0 -48 26.5 -97.5t83.5 -117.5q104 48 149.5 103.5t45.5 140.5q0 64 -39.5 104.5t-103.5 40.5q-71 0 -116.5 -45t-45.5 -129z" />
<glyph unicode="'" horiz-adv-x="468" d="M109 1464h251l-34 -526h-183z" />
<glyph unicode="(" horiz-adv-x="686" d="M96 641q0 540 340 944h217q-311 -414 -311 -944t311 -944h-217q-340 404 -340 944z" />
<glyph unicode=")" horiz-adv-x="686" d="M35 -299q309 416 309 944t-309 944h215q340 -404 340 -944t-340 -944h-215z" />
<glyph unicode="*" horiz-adv-x="878" d="M76 1176l55 182l234 -103l-27 267h205l-27 -267l234 103l53 -182l-248 -48l174 -208l-156 -113l-137 242l-131 -242l-158 113l175 208z" />
<glyph unicode="+" horiz-adv-x="1103" d="M76 602v193h373v405h206v-405h375v-193h-375v-405h-206v405h-373z" />
<glyph unicode="," horiz-adv-x="598" d="M57 -184l187 485l235 -94l-268 -459z" />
<glyph unicode="-" horiz-adv-x="722" d="M115 469v205h491v-205h-491z" />
<glyph unicode="." horiz-adv-x="591" d="M133 145q0 67 47.5 114.5t114.5 47.5q69 0 116.5 -47t47.5 -115q0 -67 -47.5 -113t-116.5 -46q-68 0 -115 46t-47 113z" />
<glyph unicode="/" horiz-adv-x="849" d="M-12 -303l616 1892h211l-618 -1892h-209z" />
<glyph unicode="0" horiz-adv-x="1435" d="M104 694v74q0 331 168 524t447 193q280 0 446 -191.5t166 -519.5v-74q0 -332 -163 -526t-449 -194q-281 0 -448 192.5t-167 521.5zM379 696q0 -246 90 -372.5t256 -126.5q334 0 334 503v72q0 236 -87.5 368t-250.5 132q-166 0 -254 -129t-88 -373v-74z" />
<glyph unicode="1" horiz-adv-x="858" d="M66 983v240l340 241h243v-1464h-274v1194z" />
<glyph unicode="2" horiz-adv-x="1183" d="M31 0v49l553 584q111 117 167 217t56 199q0 104 -57 163.5t-162 59.5q-112 0 -178 -70t-84 -221h-250q13 239 150.5 371.5t369.5 132.5q225 0 354 -118t129 -314q0 -136 -73.5 -263t-212.5 -262l-326 -317h623v-211h-1059z" />
<glyph unicode="3" horiz-adv-x="1275" d="M72 453h247q11 -123 83.5 -196t213.5 -73q139 0 209 63t70 175q0 240 -264 240h-113v194h105q243 0 243 215q0 93 -58.5 150t-168.5 57q-116 0 -188 -65.5t-84 -176.5h-242q11 196 150 322.5t368 126.5q222 0 352.5 -112.5t130.5 -280.5q0 -231 -237 -320 q131 -30 206.5 -120.5t75.5 -233.5q0 -202 -148 -320t-400 -118q-255 0 -398.5 128.5t-152.5 344.5z" />
<glyph unicode="4" horiz-adv-x="1312" d="M63 297v96l648 1071h342v-964h196v-203h-196v-297h-265v297h-725zM354 500h439v757z" />
<glyph unicode="5" horiz-adv-x="1236" d="M74 420h254q19 -113 77 -171.5t189 -58.5q125 0 194.5 80t69.5 217q0 132 -71.5 210.5t-192.5 78.5q-195 0 -305 -127h-139l12 815h889v-215h-680l-2 -397q106 123 315 123q201 0 326 -132.5t125 -359.5q0 -229 -150 -366t-389 -137q-247 0 -378 120.5t-144 319.5z" />
<glyph unicode="6" horiz-adv-x="1312" d="M104 666v34q0 187 45.5 336.5t127 247t192 149.5t242.5 52q202 0 326.5 -98.5t150.5 -288.5h-254q-22 88 -73 132t-152 44q-150 0 -239 -131t-95 -377q53 88 144.5 138t217.5 50q212 0 347 -132t135 -345q0 -224 -147 -360.5t-394 -136.5q-155 0 -268.5 52t-179 147 t-96 215.5t-30.5 271.5zM391 487q0 -144 78 -225.5t205 -81.5q123 0 198.5 80t75.5 211q0 133 -74.5 214t-199.5 81q-124 0 -203.5 -78.5t-79.5 -200.5z" />
<glyph unicode="7" horiz-adv-x="1116" d="M59 1243v221h1024v-32l-532 -1432h-281l471 1243h-682z" />
<glyph unicode="8" horiz-adv-x="1284" d="M94 414q0 136 74 232t201 140q-103 40 -160 119.5t-57 186.5q0 119 70.5 210.5t181 137t239.5 45.5q132 0 243 -46t179 -136t68 -207q0 -213 -218 -308q131 -46 202 -140t71 -226q0 -105 -43.5 -190.5t-118.5 -139.5t-173 -83t-210 -29q-149 0 -271.5 47.5t-200 148 t-77.5 238.5zM369 436q0 -118 79 -185t195 -67q121 0 196.5 67t75.5 187q0 118 -76 184t-194 66t-197 -67t-79 -185zM412 1077q0 -97 68 -154t167 -57q101 0 164 57.5t63 155.5q0 93 -65.5 151t-165.5 58q-99 0 -165 -57.5t-66 -153.5z" />
<glyph unicode="9" horiz-adv-x="1314" d="M94 985q0 226 147 364t396 138q282 0 426.5 -178.5t144.5 -501.5v-76q0 -360 -153.5 -554.5t-436.5 -194.5q-222 0 -354 104t-158 295h256q22 -92 80.5 -140t171.5 -48q158 0 240.5 126t85.5 375q-113 -184 -360 -184q-215 0 -350.5 130t-135.5 345zM362 993 q0 -133 75 -213t200 -80t204 76t79 197q0 145 -78.5 228t-206.5 83q-123 0 -198 -80t-75 -211z" />
<glyph unicode=":" horiz-adv-x="608" d="M141 145q0 67 47.5 114.5t114.5 47.5q69 0 116.5 -47t47.5 -115q0 -67 -47.5 -113t-116.5 -46q-68 0 -115 46t-47 113zM141 745q0 67 47 113.5t115 46.5q69 0 116.5 -46.5t47.5 -113.5q0 -68 -47.5 -114.5t-116.5 -46.5q-68 0 -115 47t-47 114z" />
<glyph unicode=";" horiz-adv-x="620" d="M35 -184l186 485l234 -94l-269 -459zM170 745q0 67 47.5 113.5t116.5 46.5q68 0 116 -46.5t48 -113.5t-48 -114t-116 -47q-69 0 -116.5 46.5t-47.5 114.5z" />
<glyph unicode="&#x3c;" horiz-adv-x="1038" d="M100 633v53l815 467v-229l-479 -262l479 -269v-227z" />
<glyph unicode="=" horiz-adv-x="1050" d="M80 379v186h889v-186h-889zM80 760v188h889v-188h-889z" />
<glyph unicode="&#x3e;" horiz-adv-x="1038" d="M123 166v231l479 262l-479 269v227l817 -469v-51z" />
<glyph unicode="?" horiz-adv-x="1056" d="M59 1049q10 200 141.5 318t338.5 118q210 0 320 -100.5t110 -258.5q0 -52 -14 -98t-43.5 -88.5t-55 -71.5t-68.5 -71q-6 -5 -28.5 -27t-29 -28t-26.5 -26t-27 -28.5t-22.5 -27t-21.5 -29.5t-16.5 -28.5t-15 -31.5t-8.5 -31t-5 -34v-66h-230v78q0 39 7 74.5t26 70.5 t32 57.5t46 58t45.5 48l50.5 50.5t56 57.5t43 51.5t35 61t10 61q0 81 -46 126.5t-137 45.5q-95 0 -156.5 -62.5t-72.5 -168.5h-238zM303 143q0 67 49.5 113.5t118.5 46.5q68 0 116 -46.5t48 -113.5q0 -66 -48 -111.5t-116 -45.5q-69 0 -118.5 45.5t-49.5 111.5z" />
<glyph unicode="@" horiz-adv-x="1878" d="M80 526q0 152 46.5 290t130.5 245t195 186.5t245 121.5t276 42q180 0 334.5 -56.5t262.5 -155t169 -237t61 -298.5q0 -114 -25 -206.5t-65.5 -153.5t-94 -102t-109.5 -59t-113 -18q-123 0 -184 43.5t-79 128.5q-44 -82 -121 -132t-171 -50q-152 0 -242 98.5t-90 267.5 q0 208 116.5 342.5t286.5 134.5q181 0 240 -133l14 117h221l-63 -532q-21 -152 94 -152q96 0 163 101.5t67 302.5q0 277 -180 444.5t-492 167.5q-155 0 -289.5 -54.5t-231.5 -151.5t-152.5 -237.5t-55.5 -304.5q0 -144 45 -269.5t130 -221.5t220.5 -151.5t304.5 -55.5 q306 0 500 172h170q-89 -140 -269 -224.5t-403 -84.5q-161 0 -300.5 43.5t-241.5 121t-175 182.5t-109 229t-36 259zM733 487q0 -90 45.5 -144t120.5 -54q90 0 156.5 81t66.5 216q0 96 -47 146t-135 50t-147.5 -80.5t-59.5 -214.5z" />
<glyph unicode="A" horiz-adv-x="1439" d="M55 0l490 1464h356l483 -1464h-282l-117 362h-559l-115 -362h-256zM489 561h433l-215 680z" />
<glyph unicode="B" horiz-adv-x="1320" d="M168 0v1464h524q479 0 479 -381v-8q0 -240 -231 -311q150 -32 221.5 -116t71.5 -230v-8q0 -202 -129 -306t-373 -104h-563zM434 195h264q267 0 267 233v8q0 116 -68 172t-217 56h-246v-469zM434 848h225q134 0 192 51t58 164v8q0 104 -61.5 151.5t-192.5 47.5h-221v-422z " />
<glyph unicode="C" horiz-adv-x="1517" d="M94 723v16q0 216 92.5 387.5t254.5 266t364 94.5q171 0 305 -55t221 -172.5t103 -284.5h-277q-24 148 -109 221.5t-241 73.5q-195 0 -310.5 -142t-115.5 -387v-16q0 -248 113 -386t315 -138q156 0 255 78.5t120 230.5h266q-32 -258 -203 -394t-438 -136 q-340 0 -527.5 200t-187.5 543z" />
<glyph unicode="D" horiz-adv-x="1462" d="M168 0v1464h444q188 0 333 -51.5t237.5 -147t140 -226t47.5 -291.5v-19q0 -162 -47.5 -294t-140 -230t-239 -151.5t-335.5 -53.5h-440zM440 215h160q242 0 363.5 132.5t121.5 379.5v16q0 506 -487 506h-158v-1034z" />
<glyph unicode="E" horiz-adv-x="1196" d="M168 0v1464h915v-215h-643v-401h516v-205h-516v-428h678v-215h-950z" />
<glyph unicode="F" horiz-adv-x="1144" d="M168 0v1464h907v-217h-635v-436h500v-211h-500v-600h-272z" />
<glyph unicode="G" horiz-adv-x="1587" d="M94 723v16q0 215 93 386t260 266.5t378 95.5q121 0 226 -28.5t191.5 -86.5t143 -155t70.5 -224h-272q-24 142 -116 210.5t-239 68.5q-213 0 -332.5 -145t-119.5 -390v-16q0 -243 114.5 -385.5t337.5 -142.5q100 0 176 28.5t122.5 79.5t70.5 116t27 144h-369v205h637v-135 q0 -304 -178.5 -477.5t-489.5 -173.5q-229 0 -396 96t-251 262.5t-84 384.5z" />
<glyph unicode="H" horiz-adv-x="1538" d="M168 0v1464h272v-622h658v622h274v-1464h-274v623h-658v-623h-272z" />
<glyph unicode="I" horiz-adv-x="628" d="M176 0v1464h275v-1464h-275z" />
<glyph unicode="J" horiz-adv-x="907" d="M74 25v213q94 -37 188 -37q219 0 219 250v1013h275v-1020q0 -230 -121.5 -346t-331.5 -116q-148 0 -229 43z" />
<glyph unicode="K" horiz-adv-x="1349" d="M168 0v1464h272v-663l561 665h293l-606 -700l637 -766h-321l-564 684v-684h-272z" />
<glyph unicode="L" horiz-adv-x="1128" d="M168 0v1464h272v-1247h625v-217h-897z" />
<glyph unicode="M" horiz-adv-x="1822" d="M168 0v1464h364l386 -999l376 999h361v-1464h-273v1106l-436 -1106h-88l-444 1106v-1106h-246z" />
<glyph unicode="N" horiz-adv-x="1525" d="M168 0v1464h326l616 -1058v1058h248v-1464h-283l-659 1122v-1122h-248z" />
<glyph unicode="O" d="M94 723v16q0 159 55.5 297t152.5 237t235.5 155.5t298.5 56.5q215 0 383.5 -95t261 -263.5t92.5 -381.5v-16q0 -213 -90.5 -383t-259.5 -268t-387 -98q-220 0 -390 97.5t-261 266.5t-91 379zM379 725q0 -237 129.5 -381.5t331.5 -144.5q206 0 328 144.5t122 383.5v16 q0 151 -53 269.5t-157 187t-244 68.5q-213 0 -335 -144t-122 -383v-16z" />
<glyph unicode="P" horiz-adv-x="1247" d="M168 0v1464h471q254 0 398.5 -114t144.5 -338v-8q0 -113 -39.5 -199.5t-112 -140t-169.5 -80.5t-216 -27h-205v-557h-272zM440 754h199q135 0 205.5 64t70.5 186v8q0 126 -70.5 183.5t-205.5 57.5h-199v-499z" />
<glyph unicode="Q" d="M94 723v16q0 212 94.5 381.5t264 266t383.5 96.5q215 0 384 -95t262 -263t93 -380v-16q0 -180 -66.5 -330t-187.5 -252l162 -174l-164 -159l-201 215q-133 -49 -282 -49q-220 0 -390 97.5t-261 266.5t-91 379zM377 725q0 -242 129.5 -386t331.5 -144q62 0 114 12 l-143 155l166 156l180 -194q135 148 135 405v16q0 231 -121.5 377t-332.5 146q-214 0 -336.5 -144t-122.5 -383v-16z" />
<glyph unicode="R" horiz-adv-x="1341" d="M168 0v1464h491q123 0 221.5 -25.5t172 -77t113.5 -134.5t40 -193v-8q0 -162 -88.5 -258.5t-236.5 -134.5l411 -633h-295l-383 592h-174v-592h-272zM440 786h219q279 0 279 234v8q0 121 -71 173t-208 52h-219v-467z" />
<glyph unicode="S" horiz-adv-x="1300" d="M78 455h262q6 -48 17 -85t34.5 -73.5t58 -60t89.5 -38t127 -14.5q122 0 199 62.5t77 163.5q0 102 -63.5 149t-241.5 76q-271 36 -393.5 132t-122.5 296q0 182 142 301t368 119q238 0 374 -107.5t158 -316.5h-250q-20 115 -87.5 167t-194.5 52q-121 0 -186.5 -53 t-65.5 -140q0 -48 11.5 -79.5t44.5 -58.5t92.5 -45t154.5 -32q108 -15 187 -35.5t144.5 -54.5t106 -81t62.5 -113.5t22 -153.5q0 -194 -149.5 -323t-388.5 -129q-146 0 -257 35t-180 99.5t-106 149.5t-45 191z" />
<glyph unicode="T" horiz-adv-x="1193" d="M53 1249v215h1090v-215h-408v-1249h-274v1249h-408z" />
<glyph unicode="U" horiz-adv-x="1480" d="M156 557v907h274v-886q0 -202 70.5 -290.5t232.5 -88.5q165 0 241.5 88.5t76.5 308.5v868h274v-891q0 -288 -152 -440.5t-442 -152.5q-277 0 -426 148t-149 429z" />
<glyph unicode="V" horiz-adv-x="1398" d="M47 1464h285l381 -1188l383 1188h256l-496 -1464h-315z" />
<glyph unicode="W" horiz-adv-x="1955" d="M53 1464h279l254 -1075l284 1075h226l290 -1081l263 1081h254l-367 -1464h-272l-289 1067l-297 -1067h-260z" />
<glyph unicode="X" horiz-adv-x="1423" d="M74 0l471 752l-439 712h308l311 -520l309 520h281l-432 -706l469 -758h-312l-344 571l-344 -571h-278z" />
<glyph unicode="Y" horiz-adv-x="1288" d="M35 1464h301l330 -606l321 606h266l-458 -831v-633h-275v635z" />
<glyph unicode="Z" horiz-adv-x="1245" d="M45 0v37l748 1212h-672v215h1057v-34l-732 -1211h711v-219h-1112z" />
<glyph unicode="[" horiz-adv-x="772" d="M162 -303v1892h524v-186h-274v-1520h274v-186h-524z" />
<glyph unicode="\" horiz-adv-x="849" d="M37 1589h209l616 -1892h-209z" />
<glyph unicode="]" horiz-adv-x="772" d="M86 -117h274v1520h-274v186h524v-1892h-524v186z" />
<glyph unicode="^" horiz-adv-x="1056" d="M74 823l340 641h231l340 -641h-229l-230 437l-231 -437h-221z" />
<glyph unicode="_" horiz-adv-x="839" d="M-2 -174h844v-152h-844v152z" />
<glyph unicode="`" horiz-adv-x="819" d="M121 1548h274l121 -317h-182z" />
<glyph unicode="a" horiz-adv-x="1136" d="M70 297q0 91 41.5 158t118 106t173 57.5t215.5 18.5h134v55q0 111 -44.5 163t-150.5 52q-186 0 -205 -168h-239q6 73 32.5 132.5t68 100.5t98 69t121.5 40.5t138 12.5q94 0 169 -20.5t134.5 -65t92 -122t32.5 -184.5v-702h-243v131q-56 -74 -133.5 -112.5t-194.5 -38.5 q-158 0 -258 79t-100 238zM315 307q0 -149 172 -149q117 0 191 58t74 159v106h-127q-150 0 -230 -40t-80 -134z" />
<glyph unicode="b" horiz-adv-x="1296" d="M147 0v1567h248v-668q47 82 142 138.5t208 56.5q207 0 341.5 -146t134.5 -399v-17q0 -254 -132.5 -403t-343.5 -149q-123 0 -214 53t-136 139v-172h-248zM387 528q0 -175 79 -263.5t218 -88.5q137 0 210 90.5t73 261.5v17q0 172 -79 263t-206 91q-134 0 -214.5 -90.5 t-80.5 -263.5v-17z" />
<glyph unicode="c" horiz-adv-x="1177" d="M76 522v17q0 166 73 293.5t195 194.5t272 67q93 0 173.5 -22t149 -68t113 -125.5t54.5 -186.5h-240q-14 104 -78.5 153.5t-166.5 49.5q-130 0 -210.5 -94.5t-80.5 -257.5v-17q0 -172 79 -264t218 -92q103 0 175.5 59.5t82.5 169.5h227q-14 -187 -147.5 -303t-348.5 -116 q-154 0 -275.5 63t-193 187.5t-71.5 291.5z" />
<glyph unicode="d" horiz-adv-x="1296" d="M78 518v17q0 253 134.5 406t346.5 153q124 0 209 -50.5t133 -136.5v660h248v-1567h-248v180q-45 -84 -141.5 -142t-210.5 -58q-101 0 -187 35.5t-149 102.5t-99 169.5t-36 230.5zM332 524q0 -171 76.5 -259.5t201.5 -88.5q135 0 217 90t82 264v17q0 174 -75.5 263 t-212.5 89t-213 -93t-76 -265v-17z" />
<glyph unicode="e" horiz-adv-x="1187" d="M76 524v17q0 246 150.5 399.5t381.5 153.5q82 0 155 -19t138 -61.5t112 -104.5t74 -153t27 -203v-72h-784q6 -153 82 -235t213 -82q217 0 245 164h240q-26 -167 -155.5 -257.5t-336.5 -90.5q-240 0 -391 147t-151 397zM334 647h534q-17 266 -260 266q-112 0 -183.5 -70.5 t-90.5 -195.5z" />
<glyph unicode="f" horiz-adv-x="741" d="M45 885v186h145v143q0 176 94 269.5t267 93.5q73 0 141 -21v-192q-52 18 -112 18q-72 0 -107 -42t-35 -115v-154h244v-186h-244v-885h-248v885h-145z" />
<glyph unicode="g" horiz-adv-x="1296" d="M76 553v14q0 226 137 376.5t344 150.5q236 0 344 -187v164h248v-991q-1 -232 -146 -352.5t-399 -120.5q-240 0 -366.5 96t-149.5 260h250q32 -168 264 -168q146 0 222.5 72.5t76.5 216.5v158q-48 -83 -143 -141t-207 -58q-205 0 -340 141t-135 369zM330 555 q0 -146 79.5 -234t202.5 -88q131 0 214 88.5t83 239.5v14q0 152 -77 238t-211 86q-136 0 -213.5 -89.5t-77.5 -238.5v-16z" />
<glyph unicode="h" horiz-adv-x="1245" d="M147 0v1567h248v-666q41 84 131 138.5t215 54.5q169 0 268 -103.5t99 -316.5v-674h-248v651q0 122 -51.5 179t-161.5 57t-181 -66.5t-71 -189.5v-631h-248z" />
<glyph unicode="i" horiz-adv-x="555" d="M127 1389q0 61 42.5 102t104.5 41t105 -41t43 -102q0 -60 -43 -101t-105 -41t-104.5 41t-42.5 101zM154 0v1071h247v-1071h-247z" />
<glyph unicode="j" horiz-adv-x="555" d="M6 -195q79 6 113.5 44t34.5 108v1114h247v-1108q0 -171 -90.5 -258t-304.5 -90v190zM127 1389q0 61 42.5 102t104.5 41t105 -41t43 -102q0 -60 -43 -101t-105 -41t-104.5 41t-42.5 101z" />
<glyph unicode="k" horiz-adv-x="1105" d="M147 0v1567h248v-967l383 471h271l-416 -491l450 -580h-286l-402 526v-526h-248z" />
<glyph unicode="l" horiz-adv-x="555" d="M154 0v1567h247v-1567h-247z" />
<glyph unicode="m" horiz-adv-x="1880" d="M147 0v1071h248v-164q41 80 127 133.5t199 53.5q107 0 185.5 -48t117.5 -145q59 95 157.5 144t204.5 49q76 0 139.5 -24t113 -73t77 -130.5t27.5 -188.5v-678h-248v662q0 225 -190 225q-99 0 -167.5 -64.5t-68.5 -181.5v-641h-248v662q0 225 -190 225q-99 0 -167.5 -64.5 t-68.5 -181.5v-641h-248z" />
<glyph unicode="n" horiz-adv-x="1245" d="M147 0v1071h248v-170q41 84 131 138.5t215 54.5q169 0 268 -103.5t99 -316.5v-674h-248v651q0 122 -51.5 179t-161.5 57t-181 -66.5t-71 -189.5v-631h-248z" />
<glyph unicode="o" horiz-adv-x="1251" d="M76 524v17q0 246 156 399.5t395 153.5q238 0 393.5 -152t155.5 -395v-17q0 -247 -155.5 -398.5t-395.5 -151.5q-239 0 -394 151t-155 393zM330 528q0 -165 78.5 -260.5t218.5 -95.5q138 0 216.5 95.5t78.5 260.5v15q0 166 -78.5 261t-216.5 95t-217.5 -94.5t-79.5 -259.5 v-17z" />
<glyph unicode="p" horiz-adv-x="1296" d="M147 -367v1438h248v-172q47 82 142 138.5t208 56.5q207 0 341.5 -146t134.5 -399v-17q0 -254 -132.5 -403t-343.5 -149q-122 0 -213.5 52.5t-136.5 135.5v-535h-248zM387 528q0 -175 79 -263.5t218 -88.5q137 0 210 90.5t73 261.5v17q0 172 -79 263t-206 91 q-134 0 -214.5 -90.5t-80.5 -263.5v-17z" />
<glyph unicode="q" horiz-adv-x="1296" d="M78 518v17q0 253 134.5 406t346.5 153q124 0 209 -50.5t133 -136.5v164h248v-1438h-248v543q-45 -81 -142 -138.5t-210 -57.5q-101 0 -187 35.5t-149 102.5t-99 169.5t-36 230.5zM332 524q0 -171 76.5 -259.5t201.5 -88.5q135 0 217 90t82 264v17q0 174 -75.5 263 t-212.5 89t-213 -93t-76 -265v-17z" />
<glyph unicode="r" horiz-adv-x="813" d="M147 0v1071h248v-201q54 106 136 161t212 56v-231q-173 -2 -260.5 -69t-87.5 -230v-557h-248z" />
<glyph unicode="s" horiz-adv-x="1011" d="M66 334h233q9 -86 58.5 -129t154.5 -43q193 0 193 137q0 63 -52.5 94.5t-177.5 52.5q-214 34 -300.5 105.5t-86.5 220.5q0 103 59.5 178t148.5 109.5t193 34.5q384 0 420 -324h-229q-15 74 -60.5 108.5t-130.5 34.5q-79 0 -124.5 -34.5t-45.5 -92.5t47 -86.5t175 -50.5 q103 -16 170.5 -36t123 -56.5t81.5 -94t26 -140.5q0 -163 -111.5 -252.5t-316.5 -89.5q-207 0 -324 92t-124 262z" />
<glyph unicode="t" horiz-adv-x="755" d="M45 885v186h143v236h248v-236h236v-186h-236v-563q0 -138 123 -138q69 0 121 21v-197q-72 -26 -168 -26q-159 0 -241.5 82t-82.5 235v586h-143z" />
<glyph unicode="u" horiz-adv-x="1239" d="M137 385v686h248v-657q0 -121 51.5 -178.5t159.5 -57.5q106 0 178 67t72 189v637h248v-1071h-248v168q-43 -84 -129.5 -136t-210.5 -52q-168 0 -268.5 100.5t-100.5 304.5z" />
<glyph unicode="v" horiz-adv-x="1140" d="M37 1071h266l281 -817l276 817h244l-387 -1071h-289z" />
<glyph unicode="w" d="M41 1071h264l213 -774l227 774h207l209 -774l223 774h242l-336 -1071h-252l-198 721l-217 -721h-254z" />
<glyph unicode="x" horiz-adv-x="1138" d="M43 0l373 549l-348 522h286l224 -346l221 346h260l-346 -504l383 -567h-289l-250 387l-256 -387h-258z" />
<glyph unicode="y" horiz-adv-x="1132" d="M37 1071h268l285 -690l262 690h242l-584 -1438h-244l195 476z" />
<glyph unicode="z" horiz-adv-x="1009" d="M35 0v29l567 845h-512v197h879v-35l-566 -837h549v-199h-917z" />
<glyph unicode="{" horiz-adv-x="811" d="M74 557v178q133 0 187.5 62.5t37.5 154.5l-35 197q-40 235 76.5 339.5t384.5 104.5v-182q-142 -3 -192 -58.5t-29 -201.5l35 -225q17 -107 -39.5 -179.5t-165.5 -99.5q110 -25 166 -97.5t39 -180.5l-35 -224q-21 -147 29.5 -204t191.5 -60v-182q-267 0 -384 106t-77 338 l35 197q17 93 -37 155t-188 62z" />
<glyph unicode="|" horiz-adv-x="530" d="M172 -303v1892h184v-1892h-184z" />
<glyph unicode="}" horiz-adv-x="811" d="M86 -119q140 3 191 60t28 204l-33 224q-17 108 39 180.5t166 97.5q-110 27 -166 99t-39 180l33 225q23 145 -27.5 201t-191.5 59v182q268 0 384.5 -104.5t76.5 -339.5l-35 -197q-17 -92 37 -154.5t186 -62.5v-178q-132 0 -185.5 -62t-37.5 -155l35 -197q40 -232 -77 -338 t-384 -106v182z" />
<glyph unicode="~" horiz-adv-x="970" d="M78 451q10 157 81 237t169 80q60 0 119.5 -24.5t105.5 -49t72 -24.5q37 0 62.5 26.5t29.5 75.5h176q-7 -153 -79 -236t-167 -83q-49 0 -98 15.5t-81 34.5t-65.5 34.5t-56.5 15.5q-37 0 -61.5 -26.5t-30.5 -75.5h-176z" />
<glyph unicode="&#xa1;" horiz-adv-x="626" d="M147 1081q0 66 49 112t117 46t117 -46t49 -112q0 -67 -49 -113t-117 -46t-117 46t-49 113zM174 -240l39 1024h199l39 -1024h-277z" />
<glyph unicode="&#xa2;" horiz-adv-x="1181" d="M76 524v17q0 228 134.5 376.5t342.5 172.5v198h137v-198q83 -7 154 -33.5t129 -74t95.5 -121.5t47.5 -169h-233q-13 87 -64 138t-129 67v-729q86 16 143 75.5t66 155.5h223q-14 -172 -130 -285t-302 -130v-260h-137v260q-214 21 -345.5 164t-131.5 376zM326 524 q0 -148 60 -238t167 -114v723q-104 -25 -165.5 -117.5t-61.5 -236.5v-17z" />
<glyph unicode="&#xa3;" horiz-adv-x="1269" d="M61 0q5 64 28 121.5t71.5 106t115.5 67.5q21 61 21 121q0 78 -37 207h-174v174h123q-33 136 -33 245q0 132 66 233.5t178 154.5t252 53q225 0 349 -114.5t138 -313.5h-256q-19 111 -71 164t-154 53t-164.5 -66t-62.5 -174q0 -98 26 -235h408v-174h-373q20 -110 20 -209 q0 -62 -24 -129q42 -11 103.5 -34t106 -36.5t77.5 -13.5q75 0 116 35.5t47 117.5h240q-9 -167 -103 -269.5t-255 -102.5q-81 0 -169 30t-160.5 60t-115.5 30q-56 0 -86 -29.5t-35 -72.5h-213z" />
<glyph unicode="&#xa5;" horiz-adv-x="1236" d="M43 1464h297l301 -590l289 590h262l-393 -749h307v-129h-340v-137h340v-132h-340v-317h-270v317h-340v132h340v137h-340v129h305z" />
<glyph unicode="&#xa6;" horiz-adv-x="540" d="M172 -303v915h184v-915h-184zM172 756v833h184v-833h-184z" />
<glyph unicode="&#xa7;" horiz-adv-x="1157" d="M70 604q0 100 60.5 172t166.5 105q-113 90 -113 252q0 155 118.5 252.5t289.5 97.5q185 0 291 -90t112 -252h-235q-6 77 -45 117t-125 40q-85 0 -127.5 -42t-42.5 -109q0 -69 49.5 -105.5t200.5 -74.5q81 -20 139 -39.5t114.5 -50t90.5 -68t55 -91.5t21 -122 q0 -93 -60.5 -167.5t-165.5 -111.5q111 -88 111 -249q0 -150 -117.5 -249.5t-292.5 -99.5q-188 0 -297.5 93t-113.5 258h237q6 -81 47.5 -123.5t128.5 -42.5q85 0 128.5 41t43.5 108q0 68 -53.5 107t-206.5 76q-100 24 -170 53t-126.5 71.5t-84.5 103t-28 140.5zM311 633 q0 -65 55 -102.5t183 -73.5l153 -47q146 36 146 155q0 69 -53.5 105t-182.5 73l-157 45q-67 -14 -105.5 -55t-38.5 -100z" />
<glyph unicode="&#xa8;" horiz-adv-x="819" d="M72 1389q0 54 40 93.5t95 39.5t95 -39.5t40 -93.5q0 -55 -39.5 -94.5t-95.5 -39.5t-95.5 39.5t-39.5 94.5zM477 1389q0 55 39.5 94t95.5 39q55 0 95.5 -39.5t40.5 -93.5q0 -55 -40 -94.5t-96 -39.5q-57 0 -96 39t-39 95z" />
<glyph unicode="&#xa9;" horiz-adv-x="1726" d="M98 731q0 156 60 297t162.5 242.5t245 161t300.5 59.5q160 0 302 -59t243 -160t160 -241t59 -296q0 -159 -60 -301t-163 -242.5t-245 -159.5t-300 -59q-209 0 -384.5 99t-277.5 273.5t-102 385.5zM209 731q0 -145 53 -270.5t142.5 -211.5t208.5 -134.5t249 -48.5 q131 0 251 49.5t210 135.5t143.5 212.5t53.5 271.5q0 143 -52 268t-140.5 211t-208.5 135.5t-253 49.5q-181 0 -331 -84t-238 -238t-88 -346zM461 723v16q0 184 114 298t291 114q155 0 253 -76t110 -223h-197q-21 143 -166 143q-93 0 -146.5 -66.5t-53.5 -189.5v-14 q0 -123 52 -188.5t150 -65.5q75 0 123.5 38.5t57.5 113.5h188q-12 -150 -111 -230t-256 -80q-195 0 -302 110.5t-107 299.5z" />
<glyph unicode="&#xaa;" horiz-adv-x="909" d="M59 846q0 270 441 270h104v45q0 79 -33.5 117.5t-109.5 38.5q-134 0 -154 -121h-213q10 142 113 214.5t264 72.5q166 0 260 -76t94 -242v-555h-219v103q-85 -121 -260 -121q-126 0 -206.5 63.5t-80.5 190.5zM283 860q0 -106 127 -106q86 0 140 41t54 114v76h-98 q-223 0 -223 -125z" />
<glyph unicode="&#xab;" horiz-adv-x="1007" d="M98 535l262 374h195l-252 -374l252 -375h-195zM465 535l262 374h195l-252 -374l252 -375h-195z" />
<glyph unicode="&#xad;" horiz-adv-x="722" d="M115 469v205h491v-205h-491z" />
<glyph unicode="&#xae;" horiz-adv-x="1054" d="M68 1028q0 124 60.5 229t166.5 166.5t233 61.5q194 0 326.5 -132.5t132.5 -322.5q0 -192 -133.5 -323.5t-325.5 -131.5q-193 0 -326.5 131t-133.5 322zM152 1028q0 -166 107.5 -270.5t268.5 -104.5q160 0 267.5 106t107.5 271q0 166 -105.5 271.5t-269.5 105.5 q-165 0 -270.5 -106t-105.5 -273zM365 811v449h167q85 0 132 -35.5t47 -104.5v-2q0 -89 -86 -121l112 -186h-121l-98 166h-39v-166h-114zM479 1055h49q70 0 70 57v2q0 57 -70 57h-49v-116z" />
<glyph unicode="&#xaf;" horiz-adv-x="819" d="M123 1298v160h573v-160h-573z" />
<glyph unicode="&#xb0;" horiz-adv-x="894" d="M102 1145q0 140 101.5 239t245.5 99q142 0 243 -99t101 -239q0 -137 -101 -235.5t-243 -98.5q-144 0 -245.5 98.5t-101.5 235.5zM258 1145q0 -87 54 -146t137 -59q81 0 132.5 59t51.5 146q0 90 -51.5 149.5t-132.5 59.5q-83 0 -137 -59.5t-54 -149.5z" />
<glyph unicode="&#xb1;" horiz-adv-x="1103" d="M76 0v182h956v-182h-956zM76 680v192h373v361h206v-361h375v-192h-375v-358h-206v358h-373z" />
<glyph unicode="&#xb2;" horiz-adv-x="641" d="M14 737v27l262 276q121 124 121 203q0 41 -22 64.5t-64 23.5q-92 0 -106 -125h-174q6 128 82 198.5t206 70.5q127 0 196 -61.5t69 -162.5q0 -69 -36.5 -129.5t-107.5 -128.5l-118 -116h268v-140h-576z" />
<glyph unicode="&#xb3;" horiz-adv-x="688" d="M41 971h170q5 -51 34 -81t85 -30q54 0 82 25.5t28 70.5q0 93 -110 93h-58v118h56q106 0 106 88q0 38 -23.5 60t-68.5 22q-46 0 -75.5 -26t-35.5 -72h-170q8 105 83 170.5t202 65.5q125 0 196.5 -55t71.5 -144q0 -117 -125 -158q65 -12 104.5 -56.5t39.5 -111.5 q0 -104 -77.5 -164.5t-215.5 -60.5q-146 0 -221 66.5t-78 179.5z" />
<glyph unicode="&#xb4;" horiz-adv-x="819" d="M303 1231l121 317h274l-213 -317h-182z" />
<glyph unicode="&#xb6;" horiz-adv-x="1173" d="M78 1073q0 191 123 291t325 100h475v-1669h-147v1546h-160v-1546h-145v899h-23q-206 0 -327 97t-121 282z" />
<glyph unicode="&#xb7;" horiz-adv-x="591" d="M133 670q0 67 47 113t115 46q69 0 116.5 -46t47.5 -113q0 -68 -47.5 -115t-116.5 -47q-67 0 -114.5 47t-47.5 115z" />
<glyph unicode="&#xb8;" horiz-adv-x="819" d="M197 -268h135q5 -29 26 -48.5t56 -19.5t55 19.5t20 50.5q0 29 -19.5 47t-51.5 18q-35 0 -62 -18l-69 65l90 154h123l-60 -102q83 10 144 -34.5t61 -135.5q0 -84 -62 -130.5t-161 -46.5q-96 0 -156 48.5t-69 132.5z" />
<glyph unicode="&#xb9;" horiz-adv-x="518" d="M45 1176v159l193 129h168v-727h-193v543z" />
<glyph unicode="&#xba;" horiz-adv-x="1032" d="M70 1026v12q0 200 126.5 322.5t321.5 122.5q193 0 319 -120.5t126 -315.5v-13q0 -199 -126.5 -320.5t-320.5 -121.5t-320 120t-126 314zM301 1032q0 -125 56.5 -195.5t160.5 -70.5q102 0 157.5 71t55.5 195v12q0 124 -56 194.5t-157 70.5t-159 -70.5t-58 -194.5v-12z" />
<glyph unicode="&#xbb;" horiz-adv-x="1007" d="M88 160l252 375l-252 374h195l262 -374l-262 -375h-195zM453 160l252 375l-252 374h194l262 -374l-262 -375h-194z" />
<glyph unicode="&#xbc;" horiz-adv-x="1482" d="M51 1176v159l193 129h168v-727h-193v543zM113 0l1081 1464h158l-1082 -1464h-157zM795 141v70l315 516h231v-455h95v-131h-95v-141h-182v141h-364zM977 272h186v322z" />
<glyph unicode="&#xbd;" horiz-adv-x="1490" d="M51 1176v159l193 129h168v-727h-193v543zM86 0l1081 1464h158l-1081 -1464h-158zM856 0v27l262 276q121 124 121 203q0 42 -22 65t-64 23q-92 0 -106 -125h-175q6 129 82.5 198.5t206.5 69.5q127 0 195.5 -61t68.5 -162q0 -68 -36.5 -129.5t-106.5 -128.5l-119 -117h269 v-139h-576z" />
<glyph unicode="&#xbe;" horiz-adv-x="1511" d="M47 971h170q5 -51 34 -81t85 -30q54 0 82 25.5t28 70.5q0 93 -110 93h-57v118h55q106 0 106 88q0 38 -23.5 60t-68.5 22q-46 0 -75 -26t-35 -72h-170q8 105 82.5 170.5t201.5 65.5q125 0 197 -55t72 -144q0 -117 -125 -158q65 -12 104 -56.5t39 -111.5 q0 -104 -77.5 -164.5t-215.5 -60.5q-146 0 -221 66.5t-78 179.5zM197 0l1081 1464h158l-1082 -1464h-157zM817 141v70l316 516h231v-455h94v-131h-94v-141h-182v141h-365zM999 272h187v322z" />
<glyph unicode="&#xbf;" horiz-adv-x="1056" d="M86 100q0 96 46.5 169.5t133.5 158.5q6 6 31.5 30t32.5 31l29 29t29.5 32t23.5 30t22.5 33.5t16 32.5t13.5 36.5t5 36.5v65h227v-77q0 -47 -13.5 -92t-29 -75.5t-49 -71.5t-52.5 -60l-60 -60q-72 -68 -108 -119.5t-36 -111.5q0 -81 44.5 -126.5t135.5 -45.5 q96 0 157.5 62.5t72.5 168.5h237q-9 -199 -140 -316.5t-339 -117.5q-211 0 -320.5 99.5t-109.5 258.5zM420 1081q0 66 49 113t117 47q69 0 117.5 -47t48.5 -113q0 -67 -48.5 -113t-117.5 -46q-68 0 -117 46t-49 113z" />
<glyph unicode="&#xc0;" horiz-adv-x="1439" d="M55 0l490 1464h356l483 -1464h-282l-117 362h-559l-115 -362h-256zM436 1845h279l108 -276h-186zM489 561h433l-215 680z" />
<glyph unicode="&#xc1;" horiz-adv-x="1439" d="M55 0l490 1464h356l483 -1464h-282l-117 362h-559l-115 -362h-256zM489 561h433l-215 680zM610 1569l111 276h278l-202 -276h-187z" />
<glyph unicode="&#xc2;" horiz-adv-x="1439" d="M55 0l490 1464h356l483 -1464h-282l-117 362h-559l-115 -362h-256zM385 1569l227 276h213l222 -276h-181l-151 112l-154 -112h-176zM489 561h433l-215 680z" />
<glyph unicode="&#xc3;" horiz-adv-x="1439" d="M55 0l490 1464h356l483 -1464h-282l-117 362h-559l-115 -362h-256zM375 1571q10 126 72 197t151 71q51 0 127 -41t104 -41q27 0 47.5 23t26.5 59h158q-12 -125 -74.5 -195.5t-150.5 -70.5q-54 0 -129.5 40t-100.5 40q-27 0 -48.5 -23t-27.5 -59h-155zM489 561h433 l-215 680z" />
<glyph unicode="&#xc4;" horiz-adv-x="1439" d="M55 0l490 1464h356l483 -1464h-282l-117 362h-559l-115 -362h-256zM365 1724q0 55 39.5 94.5t95.5 39.5t95.5 -39.5t39.5 -94.5t-39.5 -94t-95.5 -39t-95.5 39t-39.5 94zM489 561h433l-215 680zM797 1724q0 55 39.5 94.5t95.5 39.5t95.5 -39.5t39.5 -94.5t-39.5 -94 t-95.5 -39t-95.5 39t-39.5 94z" />
<glyph unicode="&#xc5;" horiz-adv-x="1439" d="M55 0l490 1464h356l483 -1464h-282l-117 362h-559l-115 -362h-256zM487 1765q0 92 67.5 158t162.5 66t162 -66t67 -158t-67 -157.5t-162 -65.5t-162.5 65.5t-67.5 157.5zM489 561h433l-215 680zM614 1765q0 -50 28.5 -81t74.5 -31q44 0 73 31.5t29 80.5t-29 81t-73 32 q-46 0 -74.5 -31.5t-28.5 -81.5z" />
<glyph unicode="&#xc6;" horiz-adv-x="1988" d="M45 0l719 1464h1112v-215h-639v-401h512v-205h-512v-428h674v-215h-946v375h-476l-178 -375h-266zM584 569h381v680h-56z" />
<glyph unicode="&#xc7;" horiz-adv-x="1517" d="M94 723v16q0 216 92.5 387.5t254.5 266t364 94.5q171 0 305 -55t221 -172.5t103 -284.5h-277q-24 148 -109 221.5t-241 73.5q-195 0 -310.5 -142t-115.5 -387v-16q0 -248 113 -386t315 -138q156 0 255 78.5t120 230.5h266q-32 -250 -192.5 -385.5t-413.5 -144.5l-47 -82 q83 10 143.5 -34.5t60.5 -135.5q0 -84 -62 -130.5t-161 -46.5q-96 0 -156 48.5t-69 132.5h135q5 -29 26 -48.5t56 -19.5t55.5 19.5t20.5 50.5q0 29 -20 47t-52 18q-34 0 -61 -18l-70 65l80 138q-301 26 -465 222.5t-164 516.5z" />
<glyph unicode="&#xc8;" horiz-adv-x="1196" d="M168 0v1464h915v-215h-643v-401h516v-205h-516v-428h678v-215h-950zM360 1845h279l109 -276h-187z" />
<glyph unicode="&#xc9;" horiz-adv-x="1196" d="M168 0v1464h915v-215h-643v-401h516v-205h-516v-428h678v-215h-950zM535 1569l110 276h279l-203 -276h-186z" />
<glyph unicode="&#xca;" horiz-adv-x="1196" d="M168 0v1464h915v-215h-643v-401h516v-205h-516v-428h678v-215h-950zM309 1569l228 276h213l221 -276h-180l-152 112l-154 -112h-176z" />
<glyph unicode="&#xcb;" horiz-adv-x="1196" d="M168 0v1464h915v-215h-643v-401h516v-205h-516v-428h678v-215h-950zM289 1724q0 55 39.5 94.5t95.5 39.5t95.5 -39.5t39.5 -94.5t-39.5 -94t-95.5 -39t-95.5 39t-39.5 94zM721 1724q0 55 39.5 94.5t95.5 39.5t95.5 -39.5t39.5 -94.5t-39.5 -94t-95.5 -39t-95.5 39 t-39.5 94z" />
<glyph unicode="&#xcc;" horiz-adv-x="628" d="M33 1845h278l109 -276h-187zM176 0v1464h275v-1464h-275z" />
<glyph unicode="&#xcd;" horiz-adv-x="628" d="M176 0v1464h275v-1464h-275zM207 1569l110 276h279l-203 -276h-186z" />
<glyph unicode="&#xce;" horiz-adv-x="628" d="M-18 1569l227 276h213l221 -276h-180l-152 112l-153 -112h-176zM176 0v1464h275v-1464h-275z" />
<glyph unicode="&#xcf;" horiz-adv-x="628" d="M-39 1724q0 55 39.5 94.5t95.5 39.5t95.5 -39.5t39.5 -94.5t-39.5 -94t-95.5 -39t-95.5 39t-39.5 94zM176 0v1464h275v-1464h-275zM393 1724q0 55 39.5 94.5t95.5 39.5t96 -39.5t40 -94.5t-40 -94t-96 -39t-95.5 39t-39.5 94z" />
<glyph unicode="&#xd0;" horiz-adv-x="1513" d="M66 637v194h141v633h444q188 0 333 -51.5t237.5 -147t140 -226t47.5 -291.5v-19q0 -162 -47 -294t-139.5 -230t-238.5 -151.5t-335 -53.5h-442v637h-141zM477 215h164q242 0 362.5 132.5t120.5 379.5v16q0 506 -485 506h-162v-418h354v-194h-354v-422z" />
<glyph unicode="&#xd1;" horiz-adv-x="1525" d="M168 0v1464h326l616 -1058v1058h248v-1464h-283l-659 1122v-1122h-248zM446 1571q10 126 72.5 197t151.5 71q51 0 127 -41t104 -41q27 0 47.5 23t26.5 59h158q-12 -125 -75 -195.5t-151 -70.5q-42 0 -86.5 20t-81.5 40t-61 20q-27 0 -48.5 -23t-27.5 -59h-156z" />
<glyph unicode="&#xd2;" d="M94 723v16q0 159 55.5 297t152.5 237t235.5 155.5t298.5 56.5q215 0 383.5 -95t261 -263.5t92.5 -381.5v-16q0 -213 -90.5 -383t-259.5 -268t-387 -98q-220 0 -390 97.5t-261 266.5t-91 379zM379 725q0 -237 129.5 -381.5t331.5 -144.5q206 0 328 144.5t122 383.5v16 q0 151 -53 269.5t-157 187t-244 68.5q-213 0 -335 -144t-122 -383v-16zM551 1845h278l109 -276h-186z" />
<glyph unicode="&#xd3;" d="M94 723v16q0 159 55.5 297t152.5 237t235.5 155.5t298.5 56.5q215 0 383.5 -95t261 -263.5t92.5 -381.5v-16q0 -213 -90.5 -383t-259.5 -268t-387 -98q-220 0 -390 97.5t-261 266.5t-91 379zM379 725q0 -237 129.5 -381.5t331.5 -144.5q206 0 328 144.5t122 383.5v16 q0 151 -53 269.5t-157 187t-244 68.5q-213 0 -335 -144t-122 -383v-16zM725 1569l111 276h278l-203 -276h-186z" />
<glyph unicode="&#xd4;" d="M94 723v16q0 159 55.5 297t152.5 237t235.5 155.5t298.5 56.5q215 0 383.5 -95t261 -263.5t92.5 -381.5v-16q0 -213 -90.5 -383t-259.5 -268t-387 -98q-220 0 -390 97.5t-261 266.5t-91 379zM379 725q0 -237 129.5 -381.5t331.5 -144.5q206 0 328 144.5t122 383.5v16 q0 151 -53 269.5t-157 187t-244 68.5q-213 0 -335 -144t-122 -383v-16zM500 1569l227 276h213l221 -276h-180l-152 112l-153 -112h-176z" />
<glyph unicode="&#xd5;" d="M94 723v16q0 159 55.5 297t152.5 237t235.5 155.5t298.5 56.5q215 0 383.5 -95t261 -263.5t92.5 -381.5v-16q0 -213 -90.5 -383t-259.5 -268t-387 -98q-220 0 -390 97.5t-261 266.5t-91 379zM379 725q0 -237 129.5 -381.5t331.5 -144.5q206 0 328 144.5t122 383.5v16 q0 151 -53 269.5t-157 187t-244 68.5q-213 0 -335 -144t-122 -383v-16zM489 1571q10 126 72.5 197t151.5 71q51 0 127 -41t104 -41q27 0 47.5 23t26.5 59h158q-12 -125 -75 -195.5t-151 -70.5q-42 0 -86.5 20t-81.5 40t-61 20q-27 0 -48.5 -23t-27.5 -59h-156z" />
<glyph unicode="&#xd6;" d="M94 723v16q0 159 55.5 297t152.5 237t235.5 155.5t298.5 56.5q215 0 383.5 -95t261 -263.5t92.5 -381.5v-16q0 -213 -90.5 -383t-259.5 -268t-387 -98q-220 0 -390 97.5t-261 266.5t-91 379zM379 725q0 -237 129.5 -381.5t331.5 -144.5q206 0 328 144.5t122 383.5v16 q0 151 -53 269.5t-157 187t-244 68.5q-213 0 -335 -144t-122 -383v-16zM479 1724q0 55 39.5 94.5t95.5 39.5t96 -39.5t40 -94.5t-40 -94t-96 -39t-95.5 39t-39.5 94zM911 1724q0 55 40 94.5t96 39.5t95.5 -39.5t39.5 -94.5t-39.5 -94t-95.5 -39t-96 39t-40 94z" />
<glyph unicode="&#xd7;" horiz-adv-x="1042" d="M70 999l135 138l315 -318l316 316l135 -136l-316 -315l318 -315l-137 -136l-316 318l-313 -315l-135 135l315 313z" />
<glyph unicode="&#xd8;" d="M70 37l186 201q-162 201 -162 485v16q0 212 94.5 381.5t264 266t383.5 96.5q260 0 448 -137l160 172l102 -103l-153 -166q182 -204 182 -504v-16q0 -213 -91 -383t-260.5 -268t-387.5 -98q-281 0 -476 155l-188 -203zM377 725q0 -169 63 -289l682 735q-118 97 -286 97 q-214 0 -336.5 -144t-122.5 -383v-16zM528 315q122 -116 310 -116q209 0 331.5 144.5t122.5 385.5v16q0 187 -75 316z" />
<glyph unicode="&#xd9;" horiz-adv-x="1480" d="M156 557v907h274v-886q0 -202 70.5 -290.5t232.5 -88.5q165 0 241.5 88.5t76.5 308.5v868h274v-891q0 -288 -152 -440.5t-442 -152.5q-277 0 -426 148t-149 429zM457 1845h278l109 -276h-187z" />
<glyph unicode="&#xda;" horiz-adv-x="1480" d="M156 557v907h274v-886q0 -202 70.5 -290.5t232.5 -88.5q165 0 241.5 88.5t76.5 308.5v868h274v-891q0 -288 -152 -440.5t-442 -152.5q-277 0 -426 148t-149 429zM631 1569l110 276h279l-203 -276h-186z" />
<glyph unicode="&#xdb;" horiz-adv-x="1480" d="M156 557v907h274v-886q0 -202 70.5 -290.5t232.5 -88.5q165 0 241.5 88.5t76.5 308.5v868h274v-891q0 -288 -152 -440.5t-442 -152.5q-277 0 -426 148t-149 429zM406 1569l227 276h213l221 -276h-180l-152 112l-153 -112h-176z" />
<glyph unicode="&#xdc;" horiz-adv-x="1480" d="M156 557v907h274v-886q0 -202 70.5 -290.5t232.5 -88.5q165 0 241.5 88.5t76.5 308.5v868h274v-891q0 -288 -152 -440.5t-442 -152.5q-277 0 -426 148t-149 429zM385 1724q0 55 39.5 94.5t95.5 39.5t95.5 -39.5t39.5 -94.5t-39.5 -94t-95.5 -39t-95.5 39t-39.5 94z M817 1724q0 55 39.5 94.5t95.5 39.5t95.5 -39.5t39.5 -94.5t-39.5 -94t-95.5 -39t-95.5 39t-39.5 94z" />
<glyph unicode="&#xdd;" horiz-adv-x="1288" d="M35 1464h301l330 -606l321 606h266l-458 -831v-633h-275v635zM543 1569l110 276h279l-203 -276h-186z" />
<glyph unicode="&#xde;" horiz-adv-x="1247" d="M168 0v1464h272v-260h199q256 0 399.5 -108t143.5 -332v-8q0 -113 -39.5 -199t-112 -139t-169 -79t-216.5 -26h-205v-313h-272zM440 512h199q136 0 206 61.5t70 182.5v8q0 126 -69.5 180.5t-206.5 54.5h-199v-487z" />
<glyph unicode="&#xdf;" horiz-adv-x="1245" d="M147 0v1141q0 140 66.5 242.5t172.5 152t237 49.5q200 0 319 -99.5t119 -271.5v-6q0 -102 -66 -189.5t-178 -123.5q157 -38 257 -154t100 -280v-12q0 -123 -36 -215.5t-99.5 -146t-142.5 -79.5t-173 -26q-114 0 -191 28v197q73 -31 148 -31q240 0 240 281v14 q0 152 -96 233t-261 78v195q70 -1 122.5 18.5t82 53.5t43.5 72.5t14 80.5v8q0 93 -55 144t-158 51q-99 0 -158 -66.5t-59 -179.5v-1159h-248z" />
<glyph unicode="&#xe0;" horiz-adv-x="1136" d="M70 297q0 91 41.5 158t118 106t173 57.5t215.5 18.5h134v55q0 111 -44.5 163t-150.5 52q-186 0 -205 -168h-239q6 73 32.5 132.5t68 100.5t98 69t121.5 40.5t138 12.5q94 0 169 -20.5t134.5 -65t92 -122t32.5 -184.5v-702h-243v131q-56 -74 -133.5 -112.5t-194.5 -38.5 q-158 0 -258 79t-100 238zM279 1548h274l121 -317h-182zM315 307q0 -149 172 -149q117 0 191 58t74 159v106h-127q-150 0 -230 -40t-80 -134z" />
<glyph unicode="&#xe1;" horiz-adv-x="1136" d="M70 297q0 91 41.5 158t118 106t173 57.5t215.5 18.5h134v55q0 111 -44.5 163t-150.5 52q-186 0 -205 -168h-239q6 73 32.5 132.5t68 100.5t98 69t121.5 40.5t138 12.5q94 0 169 -20.5t134.5 -65t92 -122t32.5 -184.5v-702h-243v131q-56 -74 -133.5 -112.5t-194.5 -38.5 q-158 0 -258 79t-100 238zM315 307q0 -149 172 -149q117 0 191 58t74 159v106h-127q-150 0 -230 -40t-80 -134zM469 1231l121 317h274l-213 -317h-182z" />
<glyph unicode="&#xe2;" horiz-adv-x="1136" d="M70 297q0 91 41.5 158t118 106t173 57.5t215.5 18.5h134v55q0 111 -44.5 163t-150.5 52q-186 0 -205 -168h-239q6 73 32.5 132.5t68 100.5t98 69t121.5 40.5t138 12.5q94 0 169 -20.5t134.5 -65t92 -122t32.5 -184.5v-702h-243v131q-56 -74 -133.5 -112.5t-194.5 -38.5 q-158 0 -258 79t-100 238zM223 1233l234 309h196l228 -309h-176l-154 139l-156 -139h-172zM315 307q0 -149 172 -149q117 0 191 58t74 159v106h-127q-150 0 -230 -40t-80 -134z" />
<glyph unicode="&#xe3;" horiz-adv-x="1136" d="M70 297q0 91 41.5 158t118 106t173 57.5t215.5 18.5h134v55q0 111 -44.5 163t-150.5 52q-186 0 -205 -168h-239q6 73 32.5 132.5t68 100.5t98 69t121.5 40.5t138 12.5q94 0 169 -20.5t134.5 -65t92 -122t32.5 -184.5v-702h-243v131q-56 -74 -133.5 -112.5t-194.5 -38.5 q-158 0 -258 79t-100 238zM233 1241q12 127 72 197.5t148 70.5q51 0 126 -39.5t103 -39.5t48 22t26 59h153q-12 -126 -72 -198t-147 -72q-42 0 -86 20.5t-81 41t-60 20.5q-27 0 -48.5 -23t-27.5 -59h-154zM315 307q0 -149 172 -149q117 0 191 58t74 159v106h-127 q-150 0 -230 -40t-80 -134z" />
<glyph unicode="&#xe4;" horiz-adv-x="1136" d="M70 297q0 91 41.5 158t118 106t173 57.5t215.5 18.5h134v55q0 111 -44.5 163t-150.5 52q-186 0 -205 -168h-239q6 73 32.5 132.5t68 100.5t98 69t121.5 40.5t138 12.5q94 0 169 -20.5t134.5 -65t92 -122t32.5 -184.5v-702h-243v131q-56 -74 -133.5 -112.5t-194.5 -38.5 q-158 0 -258 79t-100 238zM233 1389q0 54 40.5 93.5t95.5 39.5t95 -39.5t40 -93.5q0 -55 -39.5 -94.5t-95.5 -39.5t-96 39.5t-40 94.5zM315 307q0 -149 172 -149q117 0 191 58t74 159v106h-127q-150 0 -230 -40t-80 -134zM639 1389q0 55 39.5 94t95.5 39q55 0 95 -39.5 t40 -93.5q0 -55 -39.5 -94.5t-95.5 -39.5q-57 0 -96 39t-39 95z" />
<glyph unicode="&#xe5;" horiz-adv-x="1136" d="M70 297q0 91 41.5 158t118 106t173 57.5t215.5 18.5h134v55q0 111 -44.5 163t-150.5 52q-186 0 -205 -168h-239q6 73 32.5 132.5t68 100.5t98 69t121.5 40.5t138 12.5q94 0 169 -20.5t134.5 -65t92 -122t32.5 -184.5v-702h-243v131q-56 -74 -133.5 -112.5t-194.5 -38.5 q-158 0 -258 79t-100 238zM315 307q0 -149 172 -149q117 0 191 58t74 159v106h-127q-150 0 -230 -40t-80 -134zM344 1430q0 91 66.5 156t160.5 65t161 -65t67 -156t-67 -156.5t-161 -65.5t-160.5 65.5t-66.5 156.5zM469 1430q0 -48 29 -80.5t73 -32.5t73.5 32.5t29.5 80.5 q0 49 -29 80.5t-74 31.5q-44 0 -73 -31.5t-29 -80.5z" />
<glyph unicode="&#xe6;" horiz-adv-x="1824" d="M70 297q0 91 41 159t116 108t171.5 59.5t215.5 19.5h140v49q0 109 -46 162t-149 53q-189 0 -207 -168h-239q7 91 45.5 160.5t101 111t139 62.5t166.5 21q249 0 340 -156q134 156 355 156q79 0 150.5 -18.5t134.5 -60.5t109 -104t72.5 -153.5t26.5 -204.5v-68h-762 q6 -155 77.5 -238t203.5 -83q209 0 237 164h238q-26 -167 -151.5 -257.5t-325.5 -90.5q-277 0 -408 204q-72 -105 -171.5 -154.5t-248.5 -49.5q-166 0 -269 79t-103 238zM315 311q0 -153 174 -153q118 0 191.5 58t73.5 159v108h-133q-148 0 -227 -39.5t-79 -132.5zM995 643 h512q-20 270 -247 270q-107 0 -177.5 -72t-87.5 -198z" />
<glyph unicode="&#xe7;" horiz-adv-x="1177" d="M76 522v17q0 166 73 293.5t195 194.5t272 67q93 0 173.5 -22t149 -68t113 -125.5t54.5 -186.5h-240q-14 104 -78.5 153.5t-166.5 49.5q-130 0 -210.5 -94.5t-80.5 -257.5v-17q0 -172 79 -264t218 -92q103 0 175.5 59.5t82.5 169.5h227q-14 -181 -139 -295.5t-328 -123.5 l-47 -82q83 10 144 -34.5t61 -135.5q0 -84 -62 -130.5t-161 -46.5q-96 0 -156.5 48.5t-69.5 132.5h135q5 -29 26 -48.5t56 -19.5t55.5 19.5t20.5 50.5q0 29 -20 47t-52 18q-34 0 -61 -18l-70 65l82 140q-202 27 -326 168.5t-124 367.5z" />
<glyph unicode="&#xe8;" horiz-adv-x="1187" d="M76 524v17q0 246 150.5 399.5t381.5 153.5q82 0 155 -19t138 -61.5t112 -104.5t74 -153t27 -203v-72h-784q6 -153 82 -235t213 -82q217 0 245 164h240q-26 -167 -155.5 -257.5t-336.5 -90.5q-240 0 -391 147t-151 397zM311 1548h275l121 -317h-183zM334 647h534 q-17 266 -260 266q-112 0 -183.5 -70.5t-90.5 -195.5z" />
<glyph unicode="&#xe9;" horiz-adv-x="1187" d="M76 524v17q0 246 150.5 399.5t381.5 153.5q82 0 155 -19t138 -61.5t112 -104.5t74 -153t27 -203v-72h-784q6 -153 82 -235t213 -82q217 0 245 164h240q-26 -167 -155.5 -257.5t-336.5 -90.5q-240 0 -391 147t-151 397zM334 647h534q-17 266 -260 266q-112 0 -183.5 -70.5 t-90.5 -195.5zM502 1231l121 317h274l-213 -317h-182z" />
<glyph unicode="&#xea;" horiz-adv-x="1187" d="M76 524v17q0 246 150.5 399.5t381.5 153.5q82 0 155 -19t138 -61.5t112 -104.5t74 -153t27 -203v-72h-784q6 -153 82 -235t213 -82q217 0 245 164h240q-26 -167 -155.5 -257.5t-336.5 -90.5q-240 0 -391 147t-151 397zM274 1233l234 309h197l227 -309h-176l-154 139 l-156 -139h-172zM334 647h534q-17 266 -260 266q-112 0 -183.5 -70.5t-90.5 -195.5z" />
<glyph unicode="&#xeb;" horiz-adv-x="1187" d="M76 524v17q0 246 150.5 399.5t381.5 153.5q82 0 155 -19t138 -61.5t112 -104.5t74 -153t27 -203v-72h-784q6 -153 82 -235t213 -82q217 0 245 164h240q-26 -167 -155.5 -257.5t-336.5 -90.5q-240 0 -391 147t-151 397zM266 1389q0 54 40 93.5t95 39.5t95.5 -39.5 t40.5 -93.5q0 -55 -40 -94.5t-96 -39.5t-95.5 39.5t-39.5 94.5zM334 647h534q-17 266 -260 266q-112 0 -183.5 -70.5t-90.5 -195.5zM672 1389q0 55 39 94t96 39q55 0 95 -39.5t40 -93.5q0 -55 -39.5 -94.5t-95.5 -39.5q-57 0 -96 39t-39 95z" />
<glyph unicode="&#xec;" horiz-adv-x="555" d="M-14 1548h274l121 -317h-182zM154 0v1071h247v-1071h-247z" />
<glyph unicode="&#xed;" horiz-adv-x="555" d="M154 0v1071h247v-1071h-247zM176 1231l121 317h274l-213 -317h-182z" />
<glyph unicode="&#xee;" horiz-adv-x="555" d="M-51 1233l233 309h197l227 -309h-176l-154 139l-155 -139h-172zM154 0v1071h247v-1071h-247z" />
<glyph unicode="&#xef;" horiz-adv-x="555" d="M-55 1389q0 54 40 93.5t95 39.5t95 -39.5t40 -93.5q0 -55 -39.5 -94.5t-95.5 -39.5t-95.5 39.5t-39.5 94.5zM154 0v1071h247v-1071h-247zM338 1389q0 54 40 93.5t95 39.5t95 -39.5t40 -93.5q0 -55 -39.5 -94.5t-95.5 -39.5t-95.5 39.5t-39.5 94.5z" />
<glyph unicode="&#xf0;" horiz-adv-x="1251" d="M76 530v21q0 118 40 220t107 170.5t155 107t183 38.5q164 0 275 -124q-79 159 -240 317l-252 -121l-55 111l211 100q-110 97 -254 197h293q89 -51 153 -103l191 92l55 -110l-141 -70q78 -72 142.5 -152.5t119.5 -178.5t86 -213t31 -234v-45q0 -257 -154.5 -415 t-398.5 -158q-239 0 -393 152.5t-154 397.5zM330 528q0 -165 79 -260.5t218 -95.5q137 0 216 96t79 258v17q0 166 -78.5 261t-214.5 95q-138 0 -218.5 -94.5t-80.5 -259.5v-17z" />
<glyph unicode="&#xf1;" horiz-adv-x="1245" d="M147 0v1071h248v-170q41 84 131 138.5t215 54.5q169 0 268 -103.5t99 -316.5v-674h-248v651q0 122 -51.5 179t-161.5 57t-181 -66.5t-71 -189.5v-631h-248zM283 1241q12 127 71.5 197.5t147.5 70.5q51 0 126 -39.5t103 -39.5t48 22t26 59h153q-12 -126 -72 -198t-147 -72 q-42 0 -86 20.5t-81 41t-60 20.5q-27 0 -48.5 -23t-27.5 -59h-153z" />
<glyph unicode="&#xf2;" horiz-adv-x="1251" d="M76 524v17q0 246 156 399.5t395 153.5q238 0 393.5 -152t155.5 -395v-17q0 -247 -155.5 -398.5t-395.5 -151.5q-239 0 -394 151t-155 393zM330 528q0 -165 78.5 -260.5t218.5 -95.5q138 0 216.5 95.5t78.5 260.5v15q0 166 -78.5 261t-216.5 95t-217.5 -94.5t-79.5 -259.5 v-17zM332 1548h274l121 -317h-182z" />
<glyph unicode="&#xf3;" horiz-adv-x="1251" d="M76 524v17q0 246 156 399.5t395 153.5q238 0 393.5 -152t155.5 -395v-17q0 -247 -155.5 -398.5t-395.5 -151.5q-239 0 -394 151t-155 393zM330 528q0 -165 78.5 -260.5t218.5 -95.5q138 0 216.5 95.5t78.5 260.5v15q0 166 -78.5 261t-216.5 95t-217.5 -94.5t-79.5 -259.5 v-17zM522 1231l121 317h275l-213 -317h-183z" />
<glyph unicode="&#xf4;" horiz-adv-x="1251" d="M76 524v17q0 246 156 399.5t395 153.5q238 0 393.5 -152t155.5 -395v-17q0 -247 -155.5 -398.5t-395.5 -151.5q-239 0 -394 151t-155 393zM295 1233l233 309h197l227 -309h-176l-153 139l-156 -139h-172zM330 528q0 -165 78.5 -260.5t218.5 -95.5q138 0 216.5 95.5 t78.5 260.5v15q0 166 -78.5 261t-216.5 95t-217.5 -94.5t-79.5 -259.5v-17z" />
<glyph unicode="&#xf5;" horiz-adv-x="1251" d="M76 524v17q0 246 156 399.5t395 153.5q238 0 393.5 -152t155.5 -395v-17q0 -247 -155.5 -398.5t-395.5 -151.5q-239 0 -394 151t-155 393zM287 1241q12 127 71.5 197.5t147.5 70.5q51 0 126 -39.5t103 -39.5t48 22t26 59h154q-12 -126 -72.5 -198t-147.5 -72 q-42 0 -86 20.5t-81 41t-60 20.5q-27 0 -48.5 -23t-27.5 -59h-153zM330 528q0 -165 78.5 -260.5t218.5 -95.5q138 0 216.5 95.5t78.5 260.5v15q0 166 -78.5 261t-216.5 95t-217.5 -94.5t-79.5 -259.5v-17z" />
<glyph unicode="&#xf6;" horiz-adv-x="1251" d="M76 524v17q0 246 156 399.5t395 153.5q238 0 393.5 -152t155.5 -395v-17q0 -247 -155.5 -398.5t-395.5 -151.5q-239 0 -394 151t-155 393zM287 1389q0 54 40 93.5t95 39.5t95 -39.5t40 -93.5q0 -55 -39.5 -94.5t-95.5 -39.5t-95.5 39.5t-39.5 94.5zM330 528 q0 -165 78.5 -260.5t218.5 -95.5q138 0 216.5 95.5t78.5 260.5v15q0 166 -78.5 261t-216.5 95t-217.5 -94.5t-79.5 -259.5v-17zM692 1389q0 55 39 94t96 39q55 0 95.5 -39.5t40.5 -93.5q0 -55 -40 -94.5t-96 -39.5q-57 0 -96 39t-39 95z" />
<glyph unicode="&#xf7;" horiz-adv-x="1105" d="M76 606v187h956v-187h-956zM397 299q0 64 45.5 109t110.5 45q64 0 110 -45t46 -109t-46 -109t-110 -45q-65 0 -110.5 45t-45.5 109zM397 1098q0 66 45.5 110.5t110.5 44.5q64 0 110 -45t46 -110q0 -64 -46 -109t-110 -45q-65 0 -110.5 45t-45.5 109z" />
<glyph unicode="&#xf8;" horiz-adv-x="1251" d="M45 8l150 162q-119 144 -119 354v17q0 246 156 399.5t395 153.5q184 0 325 -99l138 150l96 -86l-137 -150q127 -146 127 -362v-17q0 -247 -155.5 -398.5t-395.5 -151.5q-197 0 -336 102l-148 -160zM330 528q0 -99 28 -178l451 490q-77 61 -182 61q-138 0 -217.5 -95 t-79.5 -261v-17zM432 240q74 -68 195 -68q139 0 218 95t79 259v17q0 112 -37 190z" />
<glyph unicode="&#xf9;" horiz-adv-x="1239" d="M137 385v686h248v-657q0 -121 51.5 -178.5t159.5 -57.5q106 0 178 67t72 189v637h248v-1071h-248v168q-43 -84 -129.5 -136t-210.5 -52q-168 0 -268.5 100.5t-100.5 304.5zM326 1548h274l121 -317h-182z" />
<glyph unicode="&#xfa;" horiz-adv-x="1239" d="M137 385v686h248v-657q0 -121 51.5 -178.5t159.5 -57.5q106 0 178 67t72 189v637h248v-1071h-248v168q-43 -84 -129.5 -136t-210.5 -52q-168 0 -268.5 100.5t-100.5 304.5zM516 1231l121 317h274l-213 -317h-182z" />
<glyph unicode="&#xfb;" horiz-adv-x="1239" d="M137 385v686h248v-657q0 -121 51.5 -178.5t159.5 -57.5q106 0 178 67t72 189v637h248v-1071h-248v168q-43 -84 -129.5 -136t-210.5 -52q-168 0 -268.5 100.5t-100.5 304.5zM289 1233l233 309h197l227 -309h-176l-154 139l-155 -139h-172z" />
<glyph unicode="&#xfc;" horiz-adv-x="1239" d="M137 385v686h248v-657q0 -121 51.5 -178.5t159.5 -57.5q106 0 178 67t72 189v637h248v-1071h-248v168q-43 -84 -129.5 -136t-210.5 -52q-168 0 -268.5 100.5t-100.5 304.5zM281 1389q0 54 40 93.5t95 39.5t95 -39.5t40 -93.5q0 -55 -39.5 -94.5t-95.5 -39.5t-95.5 39.5 t-39.5 94.5zM686 1389q0 55 39 94t96 39q55 0 95 -39.5t40 -93.5q0 -55 -39.5 -94.5t-95.5 -39.5q-57 0 -96 39t-39 95z" />
<glyph unicode="&#xfd;" horiz-adv-x="1132" d="M37 1071h268l285 -690l262 690h242l-584 -1438h-244l195 476zM481 1231l121 317h275l-213 -317h-183z" />
<glyph unicode="&#xfe;" horiz-adv-x="1296" d="M147 -367v1934h248v-668q47 82 142 138.5t208 56.5q207 0 341.5 -146t134.5 -399v-17q0 -254 -132.5 -403t-343.5 -149q-122 0 -213.5 52.5t-136.5 135.5v-535h-248zM387 528q0 -175 79 -263.5t218 -88.5q137 0 210 90.5t73 261.5v17q0 172 -79 263t-206 91 q-134 0 -214.5 -90.5t-80.5 -263.5v-17z" />
<glyph unicode="&#xff;" horiz-adv-x="1132" d="M37 1071h268l285 -690l262 690h242l-584 -1438h-244l195 476zM246 1389q0 54 40 93.5t95 39.5t95 -39.5t40 -93.5q0 -55 -39.5 -94.5t-95.5 -39.5t-95.5 39.5t-39.5 94.5zM651 1389q0 55 39.5 94t95.5 39q55 0 95.5 -39.5t40.5 -93.5q0 -55 -40 -94.5t-96 -39.5 q-57 0 -96 39t-39 95z" />
<glyph unicode="&#x152;" horiz-adv-x="1974" d="M94 717v18q0 162 47.5 294t140 230t238.5 151.5t334 53.5h1010v-215h-613v-401h484v-205h-484v-428h647v-215h-1048q-187 0 -332 52t-237 147t-139.5 226t-47.5 292zM379 721q0 -506 485 -506h115v1034h-119q-241 0 -361 -132.5t-120 -379.5v-16z" />
<glyph unicode="&#x153;" horiz-adv-x="2029" d="M76 524v17q0 246 156 399.5t395 153.5q136 0 243 -55t174 -156q65 101 169.5 156t236.5 55q103 0 192 -31.5t161 -94.5t113.5 -169.5t41.5 -245.5v-72h-787q6 -153 82 -235t215 -82q214 0 246 164h238q-26 -167 -155 -257.5t-335 -90.5q-141 0 -248 53.5t-172 154.5 q-66 -100 -173.5 -154t-243.5 -54q-239 0 -394 151t-155 393zM330 528q0 -165 79 -260.5t218 -95.5q137 0 216 96t79 258v17q0 166 -78.5 261t-216.5 95t-217.5 -94.5t-79.5 -259.5v-17zM1176 647h534q-17 266 -260 266q-110 0 -182.5 -70.5t-91.5 -195.5z" />
<glyph unicode="&#x178;" horiz-adv-x="1288" d="M35 1464h301l330 -606l321 606h266l-458 -831v-633h-275v635zM297 1724q0 55 39.5 94.5t95.5 39.5t95.5 -39.5t39.5 -94.5t-39.5 -94t-95.5 -39t-95.5 39t-39.5 94zM729 1724q0 55 39.5 94.5t95.5 39.5t95.5 -39.5t39.5 -94.5t-39.5 -94t-95.5 -39t-95.5 39t-39.5 94z " />
<glyph unicode="&#x2c6;" horiz-adv-x="819" d="M80 1233l233 309h197l227 -309h-176l-153 139l-156 -139h-172z" />
<glyph unicode="&#x2dc;" horiz-adv-x="819" d="M72 1241q12 127 71.5 197.5t147.5 70.5q51 0 126 -39.5t103 -39.5t48 22t26 59h154q-12 -126 -72.5 -198t-147.5 -72q-42 0 -86 20.5t-81 41t-60 20.5q-27 0 -48.5 -23t-27.5 -59h-153z" />
<glyph unicode="&#x2000;" horiz-adv-x="994" />
<glyph unicode="&#x2001;" horiz-adv-x="1989" />
<glyph unicode="&#x2002;" horiz-adv-x="994" />
<glyph unicode="&#x2003;" horiz-adv-x="1989" />
<glyph unicode="&#x2004;" horiz-adv-x="663" />
<glyph unicode="&#x2005;" horiz-adv-x="497" />
<glyph unicode="&#x2006;" horiz-adv-x="331" />
<glyph unicode="&#x2007;" horiz-adv-x="331" />
<glyph unicode="&#x2008;" horiz-adv-x="248" />
<glyph unicode="&#x2009;" horiz-adv-x="397" />
<glyph unicode="&#x200a;" horiz-adv-x="110" />
<glyph unicode="&#x2010;" horiz-adv-x="722" d="M115 469v205h491v-205h-491z" />
<glyph unicode="&#x2011;" horiz-adv-x="722" d="M115 469v205h491v-205h-491z" />
<glyph unicode="&#x2012;" horiz-adv-x="722" d="M115 469v205h491v-205h-491z" />
<glyph unicode="&#x2013;" horiz-adv-x="1089" d="M92 492v172h903v-172h-903z" />
<glyph unicode="&#x2014;" horiz-adv-x="1861" d="M92 492v172h1677v-172h-1677z" />
<glyph unicode="&#x2018;" horiz-adv-x="567" d="M74 1038l256 451l145 -64l-176 -475z" />
<glyph unicode="&#x2019;" horiz-adv-x="567" d="M92 1016l176 473l224 -88l-254 -451z" />
<glyph unicode="&#x201a;" horiz-adv-x="565" d="M90 -164l174 475l225 -88l-256 -450z" />
<glyph unicode="&#x201c;" horiz-adv-x="968" d="M74 1038l256 451l145 -64l-176 -475zM477 1038l256 451l144 -64l-175 -475z" />
<glyph unicode="&#x201d;" horiz-adv-x="968" d="M92 1016l176 473l224 -88l-254 -451zM496 1016l174 473l225 -88l-256 -451z" />
<glyph unicode="&#x201e;" horiz-adv-x="968" d="M90 -164l174 475l225 -88l-256 -450zM492 -164l176 475l225 -88l-256 -450z" />
<glyph unicode="&#x2022;" horiz-adv-x="712" d="M94 625q0 108 75.5 185t186.5 77q112 0 187 -76.5t75 -185.5q0 -110 -74.5 -186.5t-187.5 -76.5q-112 0 -187 76.5t-75 186.5z" />
<glyph unicode="&#x2026;" horiz-adv-x="1720" d="M133 145q0 67 47.5 114.5t114.5 47.5q69 0 116.5 -47t47.5 -115q0 -67 -47.5 -113t-116.5 -46q-68 0 -115 46t-47 113zM698 145q0 68 46.5 115t115.5 47t116.5 -47t47.5 -115q0 -67 -47.5 -113t-116.5 -46t-115.5 45.5t-46.5 113.5zM1262 145q0 68 47 115t114 47 q69 0 117.5 -47.5t48.5 -114.5t-48.5 -113t-117.5 -46q-68 0 -114.5 46t-46.5 113z" />
<glyph unicode="&#x202f;" horiz-adv-x="397" />
<glyph unicode="&#x2039;" horiz-adv-x="647" d="M98 535l262 374h199l-252 -374l252 -375h-199z" />
<glyph unicode="&#x203a;" horiz-adv-x="647" d="M88 160l252 375l-252 374h199l262 -374l-262 -375h-199z" />
<glyph unicode="&#x205f;" horiz-adv-x="497" />
<glyph unicode="&#x20ac;" horiz-adv-x="1417" d="M57 528v129h136v140h-136v129h142q21 162 94 286.5t199.5 198.5t289.5 74q233 0 373.5 -125t165.5 -356h-256q-17 130 -90.5 200t-192.5 70q-136 0 -215 -91.5t-100 -256.5h422l-25 -129h-403v-140h377l-23 -129h-348q21 -162 100 -247.5t217 -85.5q256 0 297 297h254 q-28 -244 -171.5 -378t-383.5 -134q-247 0 -398 149.5t-183 398.5h-142z" />
<glyph unicode="&#x2122;" horiz-adv-x="1501" d="M66 1341v123h532v-123h-188v-536h-156v536h-188zM700 805v659h199l160 -407l158 407h200v-659h-155v459l-187 -459h-51l-186 459v-459h-138z" />
<glyph unicode="&#x25fc;" horiz-adv-x="1075" d="M0 0v1075h1075v-1075h-1075z" />
<glyph unicode="&#xfb01;" horiz-adv-x="1286" d="M45 885v186h145v143q0 176 93 269.5t264 93.5q77 0 135 -18v-193q-39 16 -104 16q-71 0 -105.5 -42.5t-34.5 -114.5v-154h244v-186h-244v-885h-248v885h-145zM856 1389q0 61 43 102t105 41t104.5 -41t42.5 -102q0 -60 -42.5 -101t-104.5 -41t-105 41t-43 101zM883 0v1071 h247v-1071h-247z" />
<glyph unicode="&#xfb02;" horiz-adv-x="1286" d="M45 885v186h145v143q0 176 93 269.5t264 93.5q77 0 135 -18v-193q-39 16 -104 16q-71 0 -105.5 -42.5t-34.5 -114.5v-154h244v-186h-244v-885h-248v885h-145zM883 0v1567h247v-1567h-247z" />
</font>
</defs>
</svg>
