<?xml version="1.0" standalone="no"?>
<!DOCTYPE svg PUBLIC "-//W3C//DTD SVG 1.1//EN" "http://www.w3.org/Graphics/SVG/1.1/DTD/svg11.dtd" >
<svg xmlns="http://www.w3.org/2000/svg">
<metadata></metadata>
<defs>
<font id="graphik_regularregular" horiz-adv-x="1236" >
<font-face units-per-em="2048" ascent="1675" descent="-373" />
<missing-glyph horiz-adv-x="542" />
<glyph horiz-adv-x="0" />
<glyph horiz-adv-x="682" />
<glyph unicode=" "  horiz-adv-x="542" />
<glyph unicode="&#x09;" horiz-adv-x="542" />
<glyph unicode="&#xa0;" horiz-adv-x="542" />
<glyph unicode="!" horiz-adv-x="585" d="M162 121q0 55 38.5 93t92.5 38t92.5 -38t38.5 -93t-38.5 -93t-92.5 -38t-92.5 38t-38.5 93zM201 1464h188l-29 -1050h-131z" />
<glyph unicode="&#x22;" horiz-adv-x="768" d="M125 1464h184l-30 -501h-123zM459 1464h184l-31 -501h-123z" />
<glyph unicode="#" horiz-adv-x="1030" d="M61 578v143h193l39 270h-174v144h194l49 329h140l-49 -329h198l49 329h140l-49 -329h178v-144h-199l-39 -270h180v-143h-202l-54 -375h-139l53 375h-198l-54 -375h-139l53 375h-170zM393 721h199l39 270h-199z" />
<glyph unicode="$" horiz-adv-x="1284" d="M92 446h172q7 -54 17 -93.5t32.5 -82t55.5 -70.5t87.5 -49t127.5 -28v569q-106 20 -182 48.5t-134.5 74t-87 113t-28.5 157.5q0 161 120.5 272.5t311.5 123.5v184h121v-186q185 -17 295 -119.5t130 -280.5h-159q-23 119 -87.5 182t-178.5 78v-512q118 -21 199 -50 t141 -77t88 -118t28 -168q0 -175 -128.5 -296.5t-327.5 -133.5v-260h-121v260q-102 7 -183 35t-134.5 70t-91 100t-56.5 120.5t-27 136.5zM313 1102q0 -52 10.5 -88t39.5 -69t83 -56.5t138 -40.5v493q-127 -10 -199 -76t-72 -163zM705 123q125 12 205.5 89t80.5 189 q0 117 -61 176.5t-225 94.5v-549z" />
<glyph unicode="%" horiz-adv-x="1605" d="M70 1126q0 149 100 250t236 101q138 0 236.5 -100t98.5 -247q0 -149 -99.5 -247.5t-235.5 -98.5q-134 0 -235 98t-101 244zM225 1128q0 -102 48.5 -156t132.5 -54t132 55t48 157q0 98 -48.5 155.5t-131.5 57.5t-132 -56t-49 -159zM276 0l895 1464h156l-895 -1464h-156z M864 326q0 149 100 249.5t236 100.5q138 0 237 -99.5t99 -246.5q0 -149 -100 -247.5t-236 -98.5q-134 0 -235 98t-101 244zM1020 328q0 -102 48 -156.5t132 -54.5t132 55.5t48 157.5q0 98 -48.5 155.5t-131.5 57.5t-131.5 -56t-48.5 -159z" />
<glyph unicode="&#x26;" horiz-adv-x="1404" d="M104 387q0 84 25 152.5t73.5 121t104.5 90.5t133 76q-129 167 -129 310q0 106 52 184t132 115t175 37q136 0 227.5 -85.5t91.5 -216.5q0 -243 -313 -378l307 -375l178 338h158l-240 -457l246 -299h-207l-145 176q-165 -190 -406 -190q-203 0 -333 110.5t-130 290.5z M276 403q0 -131 79 -204.5t218 -73.5q179 0 312 160l-365 444q-58 -28 -99 -56.5t-75.5 -67.5t-52 -89t-17.5 -113zM475 1135q0 -52 31 -109t96 -139q125 56 176 120t51 169q0 71 -46 117t-119 46q-82 0 -135.5 -51t-53.5 -153z" />
<glyph unicode="'" horiz-adv-x="434" d="M125 1464h184l-30 -501h-123z" />
<glyph unicode="(" horiz-adv-x="659" d="M109 639q0 288 93 525.5t247 418.5h169q-154 -192 -242.5 -420.5t-88.5 -523.5q0 -294 88 -522t243 -420h-169q-340 400 -340 942z" />
<glyph unicode=")" horiz-adv-x="659" d="M41 -297q155 192 243.5 421t88.5 523t-88.5 521.5t-243.5 420.5h170q340 -400 340 -942q0 -288 -93 -525.5t-247 -418.5h-170z" />
<glyph unicode="*" horiz-adv-x="864" d="M86 1208l45 138l242 -99l-15 275h150l-14 -275l239 99l45 -138l-254 -59l170 -227l-114 -84l-152 245l-143 -245l-117 84l170 227z" />
<glyph unicode="+" horiz-adv-x="1062" d="M74 629v143h383v414h149v-414h383v-143h-383v-414h-149v414h-383z" />
<glyph unicode="," horiz-adv-x="577" d="M74 -195l196 449l166 -78l-252 -428z" />
<glyph unicode="-" horiz-adv-x="684" d="M123 483v160h438v-160h-438z" />
<glyph unicode="." horiz-adv-x="577" d="M158 121q0 55 38.5 93t92.5 38t92.5 -38t38.5 -93t-38.5 -93t-92.5 -38t-92.5 38t-38.5 93z" />
<glyph unicode="/" horiz-adv-x="825" d="M12 -303l596 1892h156l-596 -1892h-156z" />
<glyph unicode="0" horiz-adv-x="1394" d="M123 690v82q0 326 155 518.5t422 192.5q266 0 419 -194.5t153 -512.5v-82q0 -324 -150.5 -518t-416.5 -194q-263 0 -422.5 194.5t-159.5 513.5zM305 692q0 -273 106.5 -418t293.5 -145q191 0 289 144t98 423v82q0 258 -104 409.5t-288 151.5q-187 0 -291 -148t-104 -417 v-82z" />
<glyph unicode="1" horiz-adv-x="817" d="M68 1053v166l340 245h165v-1464h-178v1288z" />
<glyph unicode="2" horiz-adv-x="1134" d="M39 0v41l582 612q104 111 157 213.5t53 210.5q0 123 -69 192.5t-193 69.5q-268 0 -309 -325h-166q17 217 142.5 343t332.5 126q203 0 323 -111.5t120 -300.5q0 -244 -295 -532l-404 -394h707v-145h-981z" />
<glyph unicode="3" d="M82 432h164q13 -139 100 -223t252 -84q167 0 250.5 75t83.5 208q0 284 -309 284h-111v150h102q275 0 275 250q0 109 -68.5 177t-197.5 68q-136 0 -223 -75.5t-101 -200.5h-156q8 178 141.5 300t338.5 122q102 0 186 -32t139 -85.5t85 -123t30 -146.5q0 -224 -232 -320 q133 -35 208 -127.5t75 -240.5q0 -196 -144.5 -311t-375.5 -115q-228 0 -366 126.5t-146 323.5z" />
<glyph unicode="4" horiz-adv-x="1263" d="M80 307v58l670 1099h237v-1011h203v-146h-203v-307h-174v307h-733zM305 453h508v876z" />
<glyph unicode="5" horiz-adv-x="1202" d="M88 395h170q12 -65 30.5 -110.5t53.5 -83.5t92.5 -57t138.5 -19q150 0 236 94.5t86 259.5q0 155 -84 248.5t-223 93.5q-122 0 -203 -35.5t-143 -105.5h-66v784h823v-153h-675v-447q108 101 299 101q200 0 327 -132.5t127 -353.5q0 -150 -67.5 -264.5t-181 -173.5 t-253.5 -59q-227 0 -349 112t-138 301z" />
<glyph unicode="6" horiz-adv-x="1267" d="M123 647v35q0 385 157 593t416 208q174 0 286.5 -90.5t141.5 -264.5h-170q-26 106 -88.5 157.5t-181.5 51.5q-171 0 -275 -151t-110 -434q54 91 153 144.5t224 53.5q214 0 346.5 -137t132.5 -342q0 -221 -137.5 -355t-368.5 -134q-117 0 -208 34.5t-150 93.5t-97.5 144.5 t-54.5 182t-16 210.5zM311 487q0 -175 93 -270.5t245 -95.5q145 0 234.5 93.5t89.5 248.5q0 159 -88.5 253.5t-237.5 94.5q-148 0 -242 -91t-94 -233z" />
<glyph unicode="7" horiz-adv-x="1075" d="M66 1321v143h964v-24l-549 -1440h-182l510 1321h-743z" />
<glyph unicode="8" horiz-adv-x="1243" d="M117 416q0 141 76 238t200 141q-105 40 -163 120t-58 187q0 114 66.5 203t168 133.5t216.5 44.5t216.5 -45.5t166.5 -133.5t65 -198q0 -107 -60 -185t-165 -124q131 -47 205.5 -143.5t74.5 -233.5q0 -106 -43.5 -191.5t-115.5 -138t-160.5 -80.5t-183.5 -28 q-92 0 -180.5 27.5t-162 79.5t-118.5 137t-45 190zM299 422q0 -138 94.5 -216.5t229.5 -78.5q140 0 230.5 78.5t90.5 220.5q0 139 -90 215t-227 76q-138 0 -233 -77.5t-95 -217.5zM352 1100q0 -112 80 -177t197 -65q119 0 190.5 65.5t71.5 180.5q0 105 -76.5 172t-191.5 67 q-117 0 -194 -66t-77 -177z" />
<glyph unicode="9" horiz-adv-x="1269" d="M113 995q0 221 137.5 355.5t367.5 134.5q258 0 392.5 -169t134.5 -487v-92q0 -363 -144 -558t-407 -195q-200 0 -320.5 98.5t-150.5 277.5h172q26 -113 97 -172t206 -59q177 0 274.5 147t100.5 435q-53 -90 -153.5 -142.5t-225.5 -52.5q-212 0 -346.5 135.5t-134.5 343.5 zM295 1004q0 -159 88.5 -254t237.5 -95q148 0 241.5 88t93.5 230q0 176 -93 274.5t-245 98.5q-145 0 -234 -93.5t-89 -248.5z" />
<glyph unicode=":" horiz-adv-x="598" d="M168 121q0 55 38.5 93t92.5 38t92.5 -38t38.5 -93t-38.5 -93t-92.5 -38t-92.5 38t-38.5 93zM168 729q0 55 38.5 93t92.5 38t92.5 -38t38.5 -93t-38.5 -93t-92.5 -38t-92.5 38t-38.5 93z" />
<glyph unicode=";" horiz-adv-x="598" d="M43 -195l197 449l166 -78l-252 -428zM186 729q0 55 38.5 93t92.5 38t93 -38t39 -93t-39 -93t-93 -38t-92.5 38t-38.5 93z" />
<glyph unicode="&#x3c;" horiz-adv-x="1032" d="M109 639v41l786 444v-163l-539 -302l539 -301v-163z" />
<glyph unicode="=" horiz-adv-x="991" d="M82 401v148h827v-148h-827zM82 770v148h827v-148h-827z" />
<glyph unicode="&#x3e;" horiz-adv-x="1032" d="M137 195v163l539 301l-539 302v163l787 -444v-41z" />
<glyph unicode="?" horiz-adv-x="1001" d="M76 1075q11 182 129.5 295t304.5 113q101 0 178 -28.5t122 -77.5t67 -108t22 -126q0 -44 -13 -86t-28 -71.5t-48 -68.5t-52 -57.5t-60 -58.5q-45 -43 -69 -68.5t-54 -65.5t-43.5 -80t-13.5 -85v-88h-151v102q0 40 7.5 76.5t26 72t32.5 59.5t46 59t47 50l52 52 q49 49 76 80.5t50 78.5t23 93q0 95 -54.5 149.5t-164.5 54.5q-115 0 -188 -72t-84 -194h-160zM307 121q0 55 38.5 93t92.5 38t92.5 -38t38.5 -93t-38.5 -93t-92.5 -38t-92.5 38t-38.5 93z" />
<glyph unicode="@" horiz-adv-x="1873" d="M92 532q0 184 70.5 348t189 279.5t279.5 182.5t336 67q180 0 333 -58t258.5 -158.5t164.5 -238.5t59 -295q0 -111 -24.5 -201.5t-63.5 -149t-90.5 -98t-103 -56.5t-103.5 -17q-117 0 -170 45t-66 131q-46 -82 -129 -136t-176 -54q-150 0 -240 95.5t-90 260.5 q0 203 117.5 339t286.5 136q101 0 162 -39.5t86 -99.5l14 123h170l-62 -516q-21 -162 99 -162q97 0 166 99.5t69 295.5q0 280 -177.5 449.5t-489.5 169.5q-153 0 -286 -54.5t-228 -151t-149 -234t-54 -297.5q0 -142 44.5 -267.5t128.5 -223.5t217.5 -155t299.5 -57 q161 0 272 40t211 126h158q-79 -136 -251 -218.5t-390 -82.5q-160 0 -297.5 44.5t-237.5 123t-171.5 184t-106.5 228t-35 253.5zM700 481q0 -105 54 -166t139 -61q103 0 182.5 90t79.5 244q0 115 -55.5 173t-157.5 58q-101 0 -171.5 -91.5t-70.5 -246.5z" />
<glyph unicode="A" horiz-adv-x="1380" d="M74 0l504 1464h233l496 -1464h-177l-143 422h-604l-141 -422h-168zM432 563h508l-254 754z" />
<glyph unicode="B" horiz-adv-x="1273" d="M184 0v1464h441q85 0 154 -11.5t129 -39t101 -70t64 -108t23 -150.5v-8q0 -234 -222 -309q157 -38 225 -121.5t68 -228.5v-8q0 -202 -127.5 -306t-353.5 -104h-502zM358 139h324q311 0 311 273v8q0 136 -80.5 201t-255.5 65h-299v-547zM358 825h267q160 0 228.5 61 t68.5 197v9q0 123 -72.5 178t-228.5 55h-263v-500z" />
<glyph unicode="C" horiz-adv-x="1495" d="M113 723v16q0 214 88.5 385t246 267t353.5 96q156 0 282.5 -52.5t211.5 -162.5t100 -264h-176q-28 170 -129.5 254t-286.5 84q-228 0 -367 -164.5t-139 -440.5v-16q0 -280 134 -439t370 -159q183 0 299 91t143 267h166q-37 -248 -198.5 -375.5t-413.5 -127.5 q-317 0 -500.5 200.5t-183.5 540.5z" />
<glyph unicode="D" horiz-adv-x="1425" d="M184 0v1464h387q184 0 327.5 -54.5t233 -152.5t135.5 -227.5t46 -284.5v-18q0 -123 -28 -231.5t-87.5 -200t-146.5 -157t-210.5 -102t-273.5 -36.5h-383zM362 145h201q277 0 421 155t144 429v16q0 130 -32.5 233t-99.5 181t-177 120t-258 42h-199v-1176z" />
<glyph unicode="E" horiz-adv-x="1159" d="M184 0v1464h854v-145h-676v-498h545v-145h-545v-531h713v-145h-891z" />
<glyph unicode="F" horiz-adv-x="1118" d="M184 0v1464h856v-145h-678v-518h529v-146h-529v-655h-178z" />
<glyph unicode="G" horiz-adv-x="1570" d="M113 723v16q0 212 88.5 382.5t251 268t368.5 97.5q112 0 210 -27t179.5 -81.5t136 -145.5t70.5 -211h-178q-30 168 -138 246t-276 78q-248 0 -388 -166t-140 -439v-16q0 -277 135.5 -438.5t388.5 -161.5q116 0 204.5 36t143 100.5t83 147.5t30.5 183h-428v147h602v-108 q0 -208 -81 -355.5t-223 -220.5t-331 -73q-220 0 -382 96.5t-244 263t-82 381.5z" />
<glyph unicode="H" horiz-adv-x="1495" d="M184 0v1464h178v-663h771v663h178v-1464h-178v651h-771v-651h-178z" />
<glyph unicode="I" horiz-adv-x="567" d="M195 0v1464h178v-1464h-178z" />
<glyph unicode="J" horiz-adv-x="860" d="M78 20v148q94 -41 194 -41q113 0 175.5 68t62.5 211v1058h178v-1067q0 -107 -31.5 -188t-87.5 -130t-128 -73t-158 -24q-131 0 -205 38z" />
<glyph unicode="K" horiz-adv-x="1261" d="M184 0v1464h178v-704l637 706h199l-651 -712l684 -754h-215l-654 715v-715h-178z" />
<glyph unicode="L" horiz-adv-x="1095" d="M184 0v1464h178v-1319h670v-145h-848z" />
<glyph unicode="M" horiz-adv-x="1753" d="M184 0v1464h248l453 -1140l438 1140h246v-1464h-178v1233l-486 -1233h-55l-502 1233v-1233h-164z" />
<glyph unicode="N" horiz-adv-x="1482" d="M184 0v1464h232l712 -1210v1210h170v-1464h-204l-740 1255v-1255h-170z" />
<glyph unicode="O" horiz-adv-x="1660" d="M113 723v16q0 155 52.5 291.5t146 236.5t229 158t293.5 58t292.5 -58t226.5 -157.5t143.5 -235t51.5 -289.5v-16q0 -154 -51.5 -291t-143 -237t-225.5 -158.5t-290 -58.5q-159 0 -295 58.5t-230 158t-147 235.5t-53 289zM297 725q0 -262 154.5 -429t386.5 -167 q242 0 384 165.5t142 434.5v16q0 166 -61 299.5t-183 214t-286 80.5q-167 0 -289.5 -77t-185 -211.5t-62.5 -309.5v-16z" />
<glyph unicode="P" horiz-adv-x="1189" d="M184 0v1464h416q109 0 199.5 -24.5t161.5 -74.5t111 -134t40 -195v-8q0 -113 -40 -198t-112 -135t-162 -74.5t-198 -24.5h-238v-596h-178zM362 737h250q157 0 239.5 75t82.5 216v8q0 150 -83 217.5t-239 67.5h-250v-584z" />
<glyph unicode="Q" horiz-adv-x="1660" d="M113 723v16q0 155 52.5 291.5t146 236.5t229 158t293.5 58t292.5 -58t226.5 -157.5t143.5 -235t51.5 -289.5v-16q0 -185 -72 -341.5t-202 -258.5l184 -205l-108 -104l-205 229q-136 -65 -307 -65q-159 0 -295 58.5t-230 158t-147 235.5t-53 289zM297 725 q0 -262 154.5 -429t386.5 -167q113 0 200 37l-164 184l109 105l186 -211q94 80 144.5 204.5t50.5 280.5v16q0 166 -61 299.5t-183 214t-286 80.5q-167 0 -289.5 -77t-185 -211.5t-62.5 -309.5v-16z" />
<glyph unicode="R" horiz-adv-x="1286" d="M184 0v1464h441q109 0 199 -23t161.5 -70t111.5 -127t40 -187v-8q0 -171 -99.5 -269.5t-263.5 -130.5l449 -649h-199l-436 637h-226v-637h-178zM362 778h275q158 0 239.5 68.5t81.5 202.5v8q0 143 -81.5 203.5t-239.5 60.5h-275v-543z" />
<glyph unicode="S" horiz-adv-x="1284" d="M98 446h172q10 -73 29.5 -125t61 -99.5t116 -72t180.5 -24.5q143 0 238.5 76.5t95.5 199.5q0 127 -74 187.5t-280 93.5q-121 19 -207 47t-152 74t-98.5 116t-32.5 166q0 170 133 284t338 114q220 0 351 -104.5t153 -299.5h-159q-26 137 -109 198.5t-236 61.5 q-146 0 -225.5 -65.5t-79.5 -171.5q0 -58 13.5 -96t51 -71t107.5 -55.5t181 -39.5q259 -40 378 -134t119 -292q0 -185 -144 -308.5t-362 -123.5q-114 0 -205.5 24.5t-153 66.5t-104.5 102t-65.5 126.5t-30.5 144.5z" />
<glyph unicode="T" horiz-adv-x="1148" d="M59 1319v145h1031v-145h-426v-1319h-179v1319h-426z" />
<glyph unicode="U" horiz-adv-x="1425" d="M172 535v929h178v-909q0 -228 83.5 -327t268.5 -99q92 0 157.5 21t115.5 71t75 139.5t25 221.5v882h178v-907q0 -274 -139 -424.5t-416 -150.5q-252 0 -389 143.5t-137 409.5z" />
<glyph unicode="V" horiz-adv-x="1339" d="M61 1464h177l436 -1292l436 1292h168l-506 -1464h-213z" />
<glyph unicode="W" horiz-adv-x="1900" d="M70 1464h182l297 -1181l344 1181h127l344 -1185l301 1185h166l-381 -1464h-164l-332 1157l-342 -1157h-161z" />
<glyph unicode="X" horiz-adv-x="1345" d="M92 0l483 752l-450 712h197l364 -575l363 575h182l-455 -712l477 -752h-200l-391 616l-392 -616h-178z" />
<glyph unicode="Y" horiz-adv-x="1224" d="M47 1464h201l383 -680l368 680h179l-463 -827v-637h-178v639z" />
<glyph unicode="Z" horiz-adv-x="1218" d="M57 0v29l830 1290h-756v145h1002v-26l-807 -1286h794v-152h-1063z" />
<glyph unicode="[" horiz-adv-x="729" d="M180 -303v1892h459v-135h-289v-1622h289v-135h-459z" />
<glyph unicode="\" horiz-adv-x="825" d="M61 1589h156l596 -1892h-156z" />
<glyph unicode="]" horiz-adv-x="729" d="M90 -168h289v1622h-289v135h459v-1892h-459v135z" />
<glyph unicode="^" horiz-adv-x="1038" d="M90 836l342 628h174l342 -628h-172l-260 483l-258 -483h-168z" />
<glyph unicode="_" horiz-adv-x="806" d="M-2 -188h811v-136h-811v136z" />
<glyph unicode="`" horiz-adv-x="819" d="M150 1556h212l127 -301h-127z" />
<glyph unicode="a" horiz-adv-x="1105" d="M84 297q0 89 44.5 155.5t122 104t170 55t200.5 17.5h153v78q0 128 -53 184.5t-176 56.5q-223 0 -246 -192h-170q8 88 46 154.5t97.5 104.5t129.5 56.5t151 18.5q65 0 120 -11t106 -38t86.5 -69.5t57 -110t21.5 -154.5v-707h-170v135q-62 -78 -140.5 -115.5t-193.5 -37.5 q-103 0 -181 32t-126.5 104.5t-48.5 178.5zM254 297q0 -88 47.5 -134t155.5 -46q139 0 228 68.5t89 189.5v133h-147q-373 0 -373 -211z" />
<glyph unicode="b" horiz-adv-x="1284" d="M172 0v1583h170v-692q48 82 149.5 140.5t213.5 58.5q215 0 351 -146.5t136 -392.5v-16q0 -247 -133.5 -400t-353.5 -153q-124 0 -219 54.5t-144 139.5v-176h-170zM336 526q0 -199 95 -301t257 -102q159 0 243.5 104t84.5 299v17q0 194 -94 299.5t-236 105.5 q-156 0 -253 -103.5t-97 -301.5v-17z" />
<glyph unicode="c" horiz-adv-x="1167" d="M92 524v17q0 120 41 223.5t111 174.5t165.5 111t202.5 40q87 0 163 -21t140.5 -64t107 -117t54.5 -173h-168q-19 121 -98.5 177t-198.5 56q-150 0 -247 -111t-97 -296v-17q0 -192 95.5 -296.5t254.5 -104.5q120 0 207.5 68.5t100.5 193.5h157q-17 -176 -146.5 -289.5 t-320.5 -113.5q-228 0 -376 148.5t-148 393.5z" />
<glyph unicode="d" horiz-adv-x="1284" d="M92 514v16q0 246 139.5 403t360.5 157q125 0 212.5 -52.5t137.5 -138.5v684h170v-1583h-170v184q-48 -82 -151.5 -142t-215.5 -60q-215 0 -349 143t-134 389zM268 522q0 -194 91.5 -296.5t234.5 -102.5q157 0 255.5 104t98.5 301v17q0 201 -89.5 302t-250.5 101 q-160 0 -250 -107.5t-90 -301.5v-17z" />
<glyph unicode="e" horiz-adv-x="1163" d="M92 524v17q0 243 140.5 396t361.5 153q76 0 145 -18.5t131 -59.5t107 -101.5t71.5 -151t26.5 -202.5v-55h-807q6 -184 93.5 -281.5t250.5 -97.5q251 0 285 186h170q-27 -158 -149.5 -242.5t-307.5 -84.5q-229 0 -373.5 148.5t-144.5 393.5zM274 639h627q-22 309 -307 309 q-129 0 -213.5 -82.5t-106.5 -226.5z" />
<glyph unicode="f" horiz-adv-x="708" d="M55 928v143h154v174q0 165 80.5 254.5t238.5 89.5q66 0 127 -20v-144q-59 23 -120 23q-80 0 -118 -49t-38 -135v-193h262v-143h-262v-928h-170v928h-154z" />
<glyph unicode="g" horiz-adv-x="1284" d="M92 543v14q0 145 62.5 266.5t178 194t259.5 72.5q125 0 212.5 -52.5t137.5 -138.5v172h170v-999q-1 -226 -140.5 -344.5t-371.5 -118.5q-224 0 -342.5 91.5t-142.5 238.5h174q38 -187 309 -187q164 0 254 81.5t90 248.5v156q-49 -83 -149.5 -143t-212.5 -60 q-211 0 -349.5 143.5t-138.5 364.5zM268 549q0 -170 95 -271.5t235 -101.5q153 0 251.5 101.5t98.5 277.5v14q0 179 -91 279t-249 100q-157 0 -248.5 -106t-91.5 -277v-16z" />
<glyph unicode="h" horiz-adv-x="1224" d="M172 0v1583h170v-682q40 81 129.5 135t214.5 54q175 0 276 -105t101 -328v-657h-170v670q0 141 -61.5 206.5t-190.5 65.5q-126 0 -212.5 -77.5t-86.5 -215.5v-649h-170z" />
<glyph unicode="i" horiz-adv-x="522" d="M145 1407q0 46 33.5 79.5t79.5 33.5t79.5 -33.5t33.5 -79.5t-33.5 -79.5t-79.5 -33.5t-79.5 33.5t-33.5 79.5zM176 0v1071h170v-1071h-170z" />
<glyph unicode="j" horiz-adv-x="522" d="M18 -248q86 7 122 49t36 117v1153h170v-1139q0 -158 -77 -237.5t-251 -85.5v143zM145 1407q0 46 33.5 79.5t79.5 33.5t79.5 -33.5t33.5 -79.5t-33.5 -79.5t-79.5 -33.5t-79.5 33.5t-33.5 79.5z" />
<glyph unicode="k" horiz-adv-x="1056" d="M172 0v1583h170v-1005l444 493h199l-459 -498l498 -573h-207l-475 555v-555h-170z" />
<glyph unicode="l" horiz-adv-x="524" d="M176 0v1583h172v-1583h-172z" />
<glyph unicode="m" horiz-adv-x="1863" d="M172 0v1071h170v-164q39 79 124 131t196 52q109 0 191.5 -49t121.5 -152q52 98 154.5 149.5t211.5 51.5q75 0 138 -23.5t114 -72.5t80 -133t29 -197v-664h-170v676q0 138 -57 202t-170 64q-114 0 -198.5 -75.5t-84.5 -211.5v-655h-170v676q0 138 -57 202t-170 64 q-114 0 -198.5 -75.5t-84.5 -211.5v-655h-170z" />
<glyph unicode="n" horiz-adv-x="1224" d="M172 0v1071h170v-170q40 81 129.5 135t214.5 54q175 0 276 -105t101 -328v-657h-170v670q0 141 -61.5 206.5t-190.5 65.5q-126 0 -212.5 -77.5t-86.5 -215.5v-649h-170z" />
<glyph unicode="o" d="M92 526v17q0 240 149 393.5t377 153.5q229 0 378 -152.5t149 -392.5v-17q0 -241 -149.5 -393.5t-379.5 -152.5q-228 0 -376 154.5t-148 389.5zM268 526q0 -184 94 -293.5t256 -109.5q160 0 255.5 110.5t95.5 292.5v15q0 186 -95.5 296.5t-255.5 110.5q-161 0 -255.5 -110 t-94.5 -295v-17z" />
<glyph unicode="p" horiz-adv-x="1284" d="M172 -373v1444h170v-180q48 82 149.5 140.5t213.5 58.5q215 0 351 -146.5t136 -392.5v-16q0 -247 -133.5 -400t-353.5 -153q-125 0 -219.5 54.5t-143.5 139.5v-549h-170zM336 526q0 -199 95 -301t257 -102q159 0 243.5 104t84.5 299v17q0 194 -94 299.5t-236 105.5 q-156 0 -253 -103.5t-97 -301.5v-17z" />
<glyph unicode="q" horiz-adv-x="1284" d="M92 514v16q0 246 139.5 403t360.5 157q125 0 212.5 -52.5t137.5 -138.5v172h170v-1444h-170v557q-48 -82 -151.5 -142t-215.5 -60q-215 0 -349 143t-134 389zM268 522q0 -194 91.5 -296.5t234.5 -102.5q157 0 255.5 104t98.5 301v17q0 201 -89.5 302t-250.5 101 q-160 0 -250 -107.5t-90 -301.5v-17z" />
<glyph unicode="r" horiz-adv-x="770" d="M172 0v1071h170v-192q56 100 136 153.5t216 57.5v-160q-86 -4 -146.5 -21t-109 -54.5t-72.5 -103.5t-24 -163v-588h-170z" />
<glyph unicode="s" horiz-adv-x="983" d="M84 330h166q9 -100 68.5 -153.5t183.5 -53.5q121 0 177 41.5t56 128.5q0 80 -58 117.5t-192 62.5q-209 38 -290.5 107t-81.5 208q0 58 21.5 107.5t57.5 85t83 60.5t98 37t102 12q75 0 138 -16.5t116.5 -51.5t87.5 -96.5t45 -145.5h-164q-19 88 -71.5 128t-153.5 40 q-92 0 -147.5 -42t-55.5 -111q0 -73 51.5 -108.5t198.5 -61.5q76 -14 125.5 -27t101.5 -37t82 -56t49 -82t19 -116q0 -150 -101 -237.5t-292 -87.5q-192 0 -302 91.5t-118 256.5z" />
<glyph unicode="t" horiz-adv-x="727" d="M55 928v143h154v244h170v-244h250v-143h-250v-643q0 -156 133 -156q70 0 131 23v-144q-64 -22 -145 -22q-142 0 -215.5 76t-73.5 206v660h-154z" />
<glyph unicode="u" horiz-adv-x="1216" d="M162 393v678h170v-670q0 -140 60.5 -206t187.5 -66q122 0 208 77.5t86 215.5v649h170v-1071h-170v170q-40 -81 -128.5 -134.5t-210.5 -53.5q-170 0 -271.5 100t-101.5 311z" />
<glyph unicode="v" horiz-adv-x="1093" d="M51 1071h185l317 -899l313 899h176l-385 -1071h-217z" />
<glyph unicode="w" horiz-adv-x="1626" d="M57 1071h185l250 -862l260 862h147l244 -862l252 862h174l-334 -1071h-188l-224 803l-250 -803h-186z" />
<glyph unicode="x" horiz-adv-x="1081" d="M57 0l383 551l-358 520h199l262 -389l260 389h184l-354 -508l391 -563h-201l-288 432l-295 -432h-183z" />
<glyph unicode="y" horiz-adv-x="1083" d="M51 1071h182l328 -768l297 768h174l-592 -1444h-172l203 484z" />
<glyph unicode="z" horiz-adv-x="989" d="M43 0v25l633 903h-572v143h834v-31l-619 -890h611v-150h-887z" />
<glyph unicode="{" horiz-adv-x="780" d="M82 584v127q61 0 108 14t74.5 37.5t44.5 55t18.5 66.5t-3.5 72l-39 213q-40 224 64.5 325t340.5 101v-129q-62 -1 -106 -10t-77.5 -30t-48.5 -55t-20 -85.5t8 -120.5l39 -235q18 -111 -37 -183t-163 -100q108 -28 163 -99.5t37 -182.5l-39 -236q-13 -69 -8 -120.5 t20 -85.5t48.5 -55t77.5 -30t106 -10v-129q-236 0 -340.5 101t-64.5 325l39 213q5 37 3.5 72t-18.5 66.5t-44.5 55.5t-74.5 38t-108 14z" />
<glyph unicode="|" horiz-adv-x="518" d="M190 -303v1892h138v-1892h-138z" />
<glyph unicode="}" horiz-adv-x="780" d="M90 -172q62 1 106 10t77.5 30t48.5 55t20 85.5t-8 120.5l-39 236q-18 111 37.5 182.5t163.5 99.5q-108 28 -163.5 100t-37.5 183l39 235q13 69 8 120.5t-20 85.5t-48.5 55t-77.5 30t-106 10v129q236 0 341 -101t65 -325l-39 -213q-5 -37 -3.5 -72t18.5 -66.5t44.5 -55 t74 -37.5t107.5 -14v-127q-61 0 -107.5 -14t-74 -38t-44.5 -55.5t-18.5 -66.5t3.5 -72l39 -213q40 -224 -65 -325t-341 -101v129z" />
<glyph unicode="~" horiz-adv-x="911" d="M90 457q10 126 72.5 194t144.5 68q58 0 115 -26.5t101.5 -52.5t70.5 -26q35 0 61.5 28t30.5 81h135q-8 -128 -70 -195t-141 -67q-48 0 -95.5 16.5t-78.5 35.5t-63.5 35.5t-53.5 16.5q-35 0 -61 -28t-33 -80h-135z" />
<glyph unicode="&#xa1;" horiz-adv-x="589" d="M164 1104q0 55 38.5 93t92.5 38t92.5 -38t38.5 -93t-38.5 -93t-92.5 -38t-92.5 38t-38.5 93zM199 -240l28 1051h131l29 -1051h-188z" />
<glyph unicode="&#xa2;" horiz-adv-x="1157" d="M92 524v17q0 223 128.5 371.5t326.5 172.5v203h121v-203q164 -13 275.5 -104t133.5 -266h-168q-16 104 -80 160t-161 69v-817q103 14 175 81t83 177h157q-15 -162 -129.5 -273t-285.5 -126v-262h-121v262q-203 21 -329 166t-126 372zM268 524q0 -171 74 -273t205 -124 v815q-126 -24 -202.5 -130.5t-76.5 -270.5v-17z" />
<glyph unicode="&#xa3;" horiz-adv-x="1220" d="M78 0q3 37 17 74.5t38.5 74.5t65 64t90.5 37q24 60 24 127q0 95 -47 268h-168v127h133q-36 155 -36 289q0 185 128.5 303.5t321.5 118.5q194 0 309 -104.5t129 -282.5h-172q-23 123 -83 182t-183 59q-119 0 -194.5 -76.5t-75.5 -201.5q0 -120 35 -287h436v-127h-408 q31 -159 31 -270q0 -67 -27 -133q55 -13 179.5 -62t173.5 -49q86 0 133 40.5t53 135.5h149q-9 -146 -91.5 -235.5t-223.5 -89.5q-61 0 -130.5 20t-121 44.5t-108.5 44.5t-95 20q-62 0 -95 -32.5t-38 -78.5h-149z" />
<glyph unicode="&#xa5;" horiz-adv-x="1179" d="M57 1464h193l358 -663l342 663h172l-409 -770h321v-119h-344v-159h344v-119h-344v-297h-174v297h-344v119h344v159h-344v119h320z" />
<glyph unicode="&#xa6;" horiz-adv-x="532" d="M190 -303v911h138v-911h-138zM190 752v837h138v-837h-138z" />
<glyph unicode="&#xa7;" horiz-adv-x="1103" d="M86 612q0 100 61.5 173t169.5 104q-63 44 -93.5 105.5t-30.5 154.5q0 142 109.5 238t254.5 96q169 0 270 -84.5t105 -237.5h-172q-6 87 -51.5 132.5t-147.5 45.5t-153.5 -52t-51.5 -134q0 -83 55 -128.5t220 -86.5q75 -19 127.5 -37t105 -47t84 -64.5t51 -87t19.5 -116.5 q0 -90 -60 -166t-165 -109q120 -88 120 -260q0 -138 -107 -235t-261 -97q-173 0 -277.5 88.5t-107.5 245.5h174q8 -93 56 -141.5t151 -48.5t156 51.5t53 132.5q0 83 -58 129.5t-231 89.5q-90 23 -154.5 50t-116.5 67.5t-78 97.5t-26 131zM254 627q0 -78 61.5 -122.5 t198.5 -82.5l154 -43q182 45 182 192q0 84 -60.5 128t-195.5 79l-162 43q-81 -18 -129.5 -69t-48.5 -125z" />
<glyph unicode="&#xa8;" horiz-adv-x="819" d="M109 1407q0 44 32 76.5t76 32.5t76.5 -32.5t32.5 -76.5t-32.5 -76.5t-76.5 -32.5t-76 32.5t-32 76.5zM494 1407q0 44 32 76.5t76 32.5t76.5 -32.5t32.5 -76.5t-32.5 -76.5t-76.5 -32.5t-76 32.5t-32 76.5z" />
<glyph unicode="&#xa9;" horiz-adv-x="1728" d="M113 731q0 154 59 293.5t159 240t240 159.5t295 59q157 0 296.5 -59t238.5 -159t157 -238t58 -292q0 -157 -59 -297t-159.5 -240t-240 -158t-295.5 -58q-205 0 -377 98t-272 270.5t-100 380.5zM211 731q0 -144 53.5 -269.5t143.5 -211t208 -134t246 -48.5 q130 0 249.5 49.5t209.5 135.5t143.5 212t53.5 270q0 190 -89 342.5t-238 236t-325 83.5q-178 0 -327.5 -84t-238.5 -237.5t-89 -344.5zM473 723v16q0 182 110.5 295t282.5 113q144 0 239 -72.5t107 -210.5h-155q-25 160 -191 160q-107 0 -169 -75.5t-62 -209.5v-14 q0 -135 60.5 -209t170.5 -74q86 0 140.5 43t66.5 127h148q-15 -144 -110.5 -219.5t-244.5 -75.5q-185 0 -289 109.5t-104 296.5z" />
<glyph unicode="&#xaa;" horiz-adv-x="858" d="M61 848q0 72 35 125.5t96.5 83.5t137 44.5t166.5 14.5h118v53q0 96 -40.5 140.5t-133.5 44.5q-162 0 -184 -140h-158q8 91 59 153.5t125 89t167 26.5q325 0 325 -312v-561h-160v107q-93 -123 -266 -123q-126 0 -206.5 64t-80.5 190zM223 852q0 -66 36 -99.5t118 -33.5 q105 0 171 50.5t66 141.5v95h-114q-277 0 -277 -154z" />
<glyph unicode="&#xab;" horiz-adv-x="1024" d="M121 535l266 364h168l-256 -364l256 -365h-168zM485 535l267 364h168l-256 -364l256 -365h-168z" />
<glyph unicode="&#xad;" horiz-adv-x="684" d="M123 483v160h438v-160h-438z" />
<glyph unicode="&#xae;" horiz-adv-x="1052" d="M72 1028q0 189 132 322t322 133q193 0 324 -131.5t131 -321.5q0 -191 -132 -321.5t-323 -130.5q-190 0 -322 129.5t-132 320.5zM154 1028q0 -166 106.5 -271.5t265.5 -105.5q160 0 266.5 106.5t106.5 272.5q0 167 -105 273t-268 106t-267.5 -107t-104.5 -274zM371 811 v449h157q80 0 126 -34.5t46 -101.5v-2q0 -93 -92 -121l119 -190h-102l-109 174h-47v-174h-98zM469 1053h57q78 0 78 65v2q0 64 -78 64h-57v-131z" />
<glyph unicode="&#xaf;" horiz-adv-x="819" d="M141 1327v131h537v-131h-537z" />
<glyph unicode="&#xb0;" horiz-adv-x="874" d="M102 1155q0 135 98.5 231.5t237.5 96.5q138 0 236 -96.5t98 -231.5q0 -132 -98 -228t-236 -96q-139 0 -237.5 95.5t-98.5 228.5zM248 1155q0 -87 54 -146t136 -59q81 0 132 58.5t51 146.5q0 90 -51 149.5t-132 59.5q-83 0 -136.5 -59.5t-53.5 -149.5z" />
<glyph unicode="&#xb1;" horiz-adv-x="1062" d="M74 0v143h915v-143h-915zM74 670v143h383v373h149v-373h383v-143h-383v-373h-149v373h-383z" />
<glyph unicode="&#xb2;" horiz-adv-x="585" d="M16 764v22l263 279q110 113 110 199q0 48 -26.5 75t-75.5 27q-106 0 -123 -135h-125q6 115 72.5 178.5t179.5 63.5q109 0 171 -56t62 -151q0 -118 -135 -250l-149 -148h290v-104h-514z" />
<glyph unicode="&#xb3;" horiz-adv-x="636" d="M43 981h125q14 -125 139 -125q64 0 96.5 29.5t32.5 81.5q0 110 -123 110h-53v97h51q115 0 115 100q0 43 -27.5 69.5t-79.5 26.5q-54 0 -87 -30t-39 -83h-125q6 96 74 156t180 60q109 0 172 -53.5t63 -135.5q0 -109 -117 -151q63 -14 100.5 -57.5t37.5 -110.5 q0 -98 -72 -154.5t-195 -56.5q-125 0 -195 61t-73 166z" />
<glyph unicode="&#xb4;" horiz-adv-x="819" d="M330 1255l127 301h213l-213 -301h-127z" />
<glyph unicode="&#xb6;" horiz-adv-x="1204" d="M92 1079q0 126 59.5 214.5t158 129.5t227.5 41h475v-1669h-142v1553h-165v-1553h-140v914h-28q-202 0 -323.5 95t-121.5 275z" />
<glyph unicode="&#xb7;" horiz-adv-x="577" d="M158 670q0 55 38.5 93t92.5 38t92.5 -38t38.5 -93t-38.5 -93t-92.5 -38t-92.5 38t-38.5 93z" />
<glyph unicode="&#xb8;" horiz-adv-x="819" d="M221 -266h111q7 -32 29.5 -53t58.5 -21q38 0 60 20.5t22 53.5q0 32 -20.5 50.5t-53.5 18.5q-30 0 -57 -16l-66 57l86 156h109l-60 -109q77 10 135 -33.5t58 -131.5q0 -79 -59 -121.5t-148 -42.5q-88 0 -143.5 47.5t-61.5 124.5z" />
<glyph unicode="&#xb9;" horiz-adv-x="473" d="M49 1219v120l182 125h123v-700h-139v565z" />
<glyph unicode="&#xba;" horiz-adv-x="1009" d="M76 1030v12q0 195 121.5 318t308.5 123q186 0 307 -121.5t121 -314.5v-13q0 -196 -121 -318t-309 -122q-186 0 -307 123t-121 313zM244 1032q0 -141 70 -224t192 -83q120 0 190 84t70 223v12q0 140 -70.5 224t-189.5 84q-121 0 -191.5 -84t-70.5 -224v-12z" />
<glyph unicode="&#xbb;" horiz-adv-x="1024" d="M104 170l256 365l-256 364h168l267 -364l-267 -365h-168zM469 170l256 365l-256 364h168l266 -364l-266 -365h-168z" />
<glyph unicode="&#xbc;" horiz-adv-x="1388" d="M55 1219v120l183 125h122v-700h-139v565zM100 0l1039 1464h135l-1038 -1464h-136zM766 141v49l313 510h170v-458h92v-101h-92v-141h-131v141h-352zM913 242h207v354z" />
<glyph unicode="&#xbd;" horiz-adv-x="1386" d="M55 1219v120l183 125h122v-700h-139v565zM74 0l1038 1464h135l-1038 -1464h-135zM809 0v23l262 278q111 114 111 199q0 48 -27 75t-76 27q-106 0 -123 -135h-125q6 115 72.5 178.5t179.5 63.5q109 0 171.5 -56t62.5 -151q0 -118 -135 -250l-150 -148h291v-104h-514z" />
<glyph unicode="&#xbe;" horiz-adv-x="1394" d="M49 981h125q14 -125 139 -125q64 0 96.5 29.5t32.5 81.5q0 110 -123 110h-53v97h51q115 0 115 100q0 43 -27 69.5t-79 26.5q-54 0 -87.5 -30t-39.5 -83h-125q6 96 74 156t180 60q109 0 172 -53.5t63 -135.5q0 -109 -117 -151q63 -14 100.5 -57.5t37.5 -110.5 q0 -98 -72 -154.5t-195 -56.5q-125 0 -195 61t-73 166zM174 0l1038 1464h136l-1039 -1464h-135zM766 141v49l313 510h170v-458h92v-101h-92v-141h-131v141h-352zM913 242h207v354z" />
<glyph unicode="&#xbf;" horiz-adv-x="1001" d="M102 82q0 44 13 86t28 71.5t48 68.5t52 57.5t60 58.5q45 43 69 68.5t54 65.5t43.5 80t13.5 85v88h152v-102q0 -40 -7.5 -76.5t-26 -72t-32.5 -59.5t-46 -59t-47 -50l-52 -52t-58.5 -61t-45.5 -57t-35 -66t-11 -68q0 -95 55 -150t165 -55q115 0 188 72.5t84 194.5h160 q-11 -182 -129.5 -295t-304.5 -113q-101 0 -178 28.5t-122 77.5t-67.5 108t-22.5 126zM432 1104q0 55 38.5 93t92.5 38t92.5 -38t38.5 -93t-38.5 -93t-92.5 -38t-92.5 38t-38.5 93z" />
<glyph unicode="&#xc0;" horiz-adv-x="1380" d="M74 0l504 1464h233l496 -1464h-177l-143 422h-604l-141 -422h-168zM432 563h508l-254 754zM438 1839h213l115 -260h-127z" />
<glyph unicode="&#xc1;" horiz-adv-x="1380" d="M74 0l504 1464h233l496 -1464h-177l-143 422h-604l-141 -422h-168zM432 563h508l-254 754zM614 1579l115 260h213l-201 -260h-127z" />
<glyph unicode="&#xc2;" horiz-adv-x="1380" d="M74 0l504 1464h233l496 -1464h-177l-143 422h-604l-141 -422h-168zM393 1579l221 260h154l219 -260h-125l-174 119l-174 -119h-121zM432 563h508l-254 754z" />
<glyph unicode="&#xc3;" horiz-adv-x="1380" d="M74 0l504 1464h233l496 -1464h-177l-143 422h-604l-141 -422h-168zM375 1581q12 108 69.5 173t137.5 65q37 0 79 -22t79 -44t61 -22q29 0 51.5 26t30.5 66h123q-12 -108 -69 -173t-136 -65q-37 0 -80 22t-80 44t-61 22q-29 0 -51.5 -26t-30.5 -66h-123zM432 563h508 l-254 754z" />
<glyph unicode="&#xc4;" horiz-adv-x="1380" d="M74 0l504 1464h233l496 -1464h-177l-143 422h-604l-141 -422h-168zM373 1724q0 44 32 76.5t76 32.5t76.5 -32.5t32.5 -76.5t-32.5 -76t-76.5 -32t-76 32t-32 76zM432 563h508l-254 754zM788 1724q0 44 32.5 76.5t76.5 32.5t76.5 -32.5t32.5 -76.5t-32.5 -76t-76.5 -32 t-76.5 32t-32.5 76z" />
<glyph unicode="&#xc5;" horiz-adv-x="1380" d="M74 0l504 1464h233l496 -1464h-177l-143 422h-604l-141 -422h-168zM432 563h508l-254 754zM471 1767q0 88 64 150.5t155 62.5t155 -62.5t64 -150.5t-64 -150.5t-155 -62.5t-155 62.5t-64 150.5zM582 1767q0 -51 30.5 -84.5t77.5 -33.5t78 33.5t31 84.5t-31 85t-78 34 t-77.5 -34t-30.5 -85z" />
<glyph unicode="&#xc6;" horiz-adv-x="1945" d="M59 0l758 1464h1008v-145h-676v-498h545v-145h-545v-531h713v-145h-891v424h-516l-215 -424h-181zM524 563h447v756h-64z" />
<glyph unicode="&#xc7;" horiz-adv-x="1495" d="M113 723v16q0 214 88.5 385t246 267t353.5 96q156 0 282.5 -52.5t211.5 -162.5t100 -264h-176q-28 170 -129.5 254t-286.5 84q-228 0 -367 -164.5t-139 -440.5v-16q0 -280 134 -439t370 -159q183 0 299 91t143 267h166q-36 -237 -184 -363.5t-381 -137.5l-49 -93 q77 10 134.5 -33.5t57.5 -131.5q0 -79 -59 -121.5t-148 -42.5q-88 0 -143.5 47.5t-61.5 124.5h111q7 -32 29.5 -53t58.5 -21q38 0 60 20.5t22 53.5q0 32 -20.5 50.5t-53.5 18.5q-30 0 -57 -16l-66 57l76 140q-290 20 -456 218t-166 521z" />
<glyph unicode="&#xc8;" horiz-adv-x="1159" d="M184 0v1464h854v-145h-676v-498h545v-145h-545v-531h713v-145h-891zM375 1839h213l114 -260h-127z" />
<glyph unicode="&#xc9;" horiz-adv-x="1159" d="M184 0v1464h854v-145h-676v-498h545v-145h-545v-531h713v-145h-891zM551 1579l115 260h213l-201 -260h-127z" />
<glyph unicode="&#xca;" horiz-adv-x="1159" d="M184 0v1464h854v-145h-676v-498h545v-145h-545v-531h713v-145h-891zM330 1579l221 260h154l219 -260h-125l-174 119l-174 -119h-121z" />
<glyph unicode="&#xcb;" horiz-adv-x="1159" d="M184 0v1464h854v-145h-676v-498h545v-145h-545v-531h713v-145h-891zM309 1724q0 44 32.5 76.5t76.5 32.5t76 -32.5t32 -76.5t-32 -76t-76 -32t-76.5 32t-32.5 76zM725 1724q0 44 32.5 76.5t76.5 32.5t76 -32.5t32 -76.5t-32 -76t-76 -32t-76.5 32t-32.5 76z" />
<glyph unicode="&#xcc;" horiz-adv-x="567" d="M31 1839h213l114 -260h-127zM195 0v1464h178v-1464h-178z" />
<glyph unicode="&#xcd;" horiz-adv-x="567" d="M195 0v1464h178v-1464h-178zM207 1579l115 260h213l-201 -260h-127z" />
<glyph unicode="&#xce;" horiz-adv-x="567" d="M-14 1579l221 260h153l220 -260h-125l-174 119l-175 -119h-120zM195 0v1464h178v-1464h-178z" />
<glyph unicode="&#xcf;" horiz-adv-x="567" d="M-35 1724q0 44 32.5 76.5t76.5 32.5t76 -32.5t32 -76.5t-32 -76t-76 -32t-76.5 32t-32.5 76zM195 0v1464h178v-1464h-178zM381 1724q0 44 32 76.5t76 32.5t76.5 -32.5t32.5 -76.5t-32.5 -76t-76.5 -32t-76 32t-32 76z" />
<glyph unicode="&#xd0;" horiz-adv-x="1466" d="M70 666v137h155v661h387q184 0 327.5 -54.5t233 -152.5t135.5 -227.5t46 -284.5v-18q0 -123 -28 -231.5t-87.5 -200t-146.5 -157t-210.5 -102t-273.5 -36.5h-383v666h-155zM403 145h201q277 0 421 155t144 429v16q0 130 -32.5 233t-99.5 181t-177 120t-258 42h-199v-518 h424v-137h-424v-521z" />
<glyph unicode="&#xd1;" horiz-adv-x="1482" d="M184 0v1464h232l712 -1210v1210h170v-1464h-204l-740 1255v-1255h-170zM446 1581q12 108 69.5 173t137.5 65q37 0 79 -22t79 -44t61 -22q29 0 51.5 26t30.5 66h123q-12 -108 -69 -173t-136 -65q-37 0 -80 22t-80 44t-61 22q-29 0 -51.5 -26t-30.5 -66h-123z" />
<glyph unicode="&#xd2;" horiz-adv-x="1660" d="M113 723v16q0 155 52.5 291.5t146 236.5t229 158t293.5 58t292.5 -58t226.5 -157.5t143.5 -235t51.5 -289.5v-16q0 -154 -51.5 -291t-143 -237t-225.5 -158.5t-290 -58.5q-159 0 -295 58.5t-230 158t-147 235.5t-53 289zM297 725q0 -262 154.5 -429t386.5 -167 q242 0 384 165.5t142 434.5v16q0 166 -61 299.5t-183 214t-286 80.5q-167 0 -289.5 -77t-185 -211.5t-62.5 -309.5v-16zM578 1839h213l114 -260h-127z" />
<glyph unicode="&#xd3;" horiz-adv-x="1660" d="M113 723v16q0 155 52.5 291.5t146 236.5t229 158t293.5 58t292.5 -58t226.5 -157.5t143.5 -235t51.5 -289.5v-16q0 -154 -51.5 -291t-143 -237t-225.5 -158.5t-290 -58.5q-159 0 -295 58.5t-230 158t-147 235.5t-53 289zM297 725q0 -262 154.5 -429t386.5 -167 q242 0 384 165.5t142 434.5v16q0 166 -61 299.5t-183 214t-286 80.5q-167 0 -289.5 -77t-185 -211.5t-62.5 -309.5v-16zM754 1579l114 260h213l-200 -260h-127z" />
<glyph unicode="&#xd4;" horiz-adv-x="1660" d="M113 723v16q0 155 52.5 291.5t146 236.5t229 158t293.5 58t292.5 -58t226.5 -157.5t143.5 -235t51.5 -289.5v-16q0 -154 -51.5 -291t-143 -237t-225.5 -158.5t-290 -58.5q-159 0 -295 58.5t-230 158t-147 235.5t-53 289zM297 725q0 -262 154.5 -429t386.5 -167 q242 0 384 165.5t142 434.5v16q0 166 -61 299.5t-183 214t-286 80.5q-167 0 -289.5 -77t-185 -211.5t-62.5 -309.5v-16zM532 1579l222 260h153l219 -260h-125l-174 119l-174 -119h-121z" />
<glyph unicode="&#xd5;" horiz-adv-x="1660" d="M113 723v16q0 155 52.5 291.5t146 236.5t229 158t293.5 58t292.5 -58t226.5 -157.5t143.5 -235t51.5 -289.5v-16q0 -154 -51.5 -291t-143 -237t-225.5 -158.5t-290 -58.5q-159 0 -295 58.5t-230 158t-147 235.5t-53 289zM297 725q0 -262 154.5 -429t386.5 -167 q242 0 384 165.5t142 434.5v16q0 166 -61 299.5t-183 214t-286 80.5q-167 0 -289.5 -77t-185 -211.5t-62.5 -309.5v-16zM514 1581q12 108 69.5 173t137.5 65q37 0 79 -22t79 -44t61 -22q29 0 51.5 26t30.5 66h123q-12 -108 -69 -173t-136 -65q-37 0 -80 22t-80 44t-61 22 q-29 0 -51.5 -26t-30.5 -66h-123z" />
<glyph unicode="&#xd6;" horiz-adv-x="1660" d="M113 723v16q0 155 52.5 291.5t146 236.5t229 158t293.5 58t292.5 -58t226.5 -157.5t143.5 -235t51.5 -289.5v-16q0 -154 -51.5 -291t-143 -237t-225.5 -158.5t-290 -58.5q-159 0 -295 58.5t-230 158t-147 235.5t-53 289zM297 725q0 -262 154.5 -429t386.5 -167 q242 0 384 165.5t142 434.5v16q0 166 -61 299.5t-183 214t-286 80.5q-167 0 -289.5 -77t-185 -211.5t-62.5 -309.5v-16zM512 1724q0 44 32.5 76.5t76.5 32.5t76 -32.5t32 -76.5t-32 -76t-76 -32t-76.5 32t-32.5 76zM928 1724q0 44 32 76.5t76 32.5t76.5 -32.5t32.5 -76.5 t-32.5 -76t-76.5 -32t-76 32t-32 76z" />
<glyph unicode="&#xd7;" horiz-adv-x="960" d="M68 367l315 315l-315 315l96 99l315 -318l316 318l98 -99l-315 -315l315 -315l-98 -99l-316 318l-315 -318z" />
<glyph unicode="&#xd8;" horiz-adv-x="1660" d="M72 25l200 219q-159 201 -159 479v16q0 155 52.5 291.5t146 236.5t229 158t293.5 58q251 0 438 -144l166 181l92 -93l-162 -178q87 -99 133.5 -229t46.5 -277v-16q0 -154 -51.5 -291t-143 -237t-225.5 -158.5t-290 -58.5q-277 0 -476 168l-198 -218zM297 725 q0 -206 90 -354l782 856q-134 112 -335 112q-167 0 -289.5 -77t-185 -211.5t-62.5 -309.5v-16zM471 268q142 -139 367 -139q242 0 384 165.5t142 434.5v16q0 229 -107 385z" />
<glyph unicode="&#xd9;" horiz-adv-x="1425" d="M172 535v929h178v-909q0 -228 83.5 -327t268.5 -99q92 0 157.5 21t115.5 71t75 139.5t25 221.5v882h178v-907q0 -274 -139 -424.5t-416 -150.5q-252 0 -389 143.5t-137 409.5zM461 1839h213l114 -260h-126z" />
<glyph unicode="&#xda;" horiz-adv-x="1425" d="M172 535v929h178v-909q0 -228 83.5 -327t268.5 -99q92 0 157.5 21t115.5 71t75 139.5t25 221.5v882h178v-907q0 -274 -139 -424.5t-416 -150.5q-252 0 -389 143.5t-137 409.5zM637 1579l115 260h213l-201 -260h-127z" />
<glyph unicode="&#xdb;" horiz-adv-x="1425" d="M172 535v929h178v-909q0 -228 83.5 -327t268.5 -99q92 0 157.5 21t115.5 71t75 139.5t25 221.5v882h178v-907q0 -274 -139 -424.5t-416 -150.5q-252 0 -389 143.5t-137 409.5zM416 1579l221 260h154l219 -260h-125l-174 119l-174 -119h-121z" />
<glyph unicode="&#xdc;" horiz-adv-x="1425" d="M172 535v929h178v-909q0 -228 83.5 -327t268.5 -99q92 0 157.5 21t115.5 71t75 139.5t25 221.5v882h178v-907q0 -274 -139 -424.5t-416 -150.5q-252 0 -389 143.5t-137 409.5zM395 1724q0 44 32.5 76.5t76.5 32.5t76 -32.5t32 -76.5t-32 -76t-76 -32t-76.5 32t-32.5 76z M811 1724q0 44 32.5 76.5t76.5 32.5t76 -32.5t32 -76.5t-32 -76t-76 -32t-76.5 32t-32.5 76z" />
<glyph unicode="&#xdd;" horiz-adv-x="1224" d="M47 1464h201l383 -680l368 680h179l-463 -827v-637h-178v639zM537 1579l114 260h213l-200 -260h-127z" />
<glyph unicode="&#xde;" horiz-adv-x="1189" d="M184 0v1464h178v-274h238q109 0 199 -23.5t161.5 -71.5t111.5 -131t40 -194v-8q0 -91 -26.5 -163.5t-73 -120.5t-112 -80t-140 -46t-160.5 -14h-238v-338h-178zM362 479h250q158 0 240 71.5t82 211.5v8q0 149 -82 213t-240 64h-250v-568z" />
<glyph unicode="&#xdf;" horiz-adv-x="1208" d="M172 0v1159q0 191 125.5 310.5t302.5 119.5q183 0 296.5 -101t113.5 -265v-9q0 -103 -65 -197t-179 -132q159 -40 256.5 -160t97.5 -279v-12q0 -101 -24 -180t-64.5 -129t-97.5 -83t-118 -46.5t-130 -13.5q-105 0 -188 32v146q80 -37 180 -37q266 0 266 307v14 q0 167 -109 265t-292 92v145q83 -2 144.5 21.5t95 64t49.5 86.5t16 96v9q0 109 -64.5 168t-185.5 59q-117 0 -186.5 -77t-69.5 -206v-1167h-170z" />
<glyph unicode="&#xe0;" horiz-adv-x="1105" d="M84 297q0 89 44.5 155.5t122 104t170 55t200.5 17.5h153v78q0 128 -53 184.5t-176 56.5q-223 0 -246 -192h-170q8 88 46 154.5t97.5 104.5t129.5 56.5t151 18.5q65 0 120 -11t106 -38t86.5 -69.5t57 -110t21.5 -154.5v-707h-170v135q-62 -78 -140.5 -115.5t-193.5 -37.5 q-103 0 -181 32t-126.5 104.5t-48.5 178.5zM254 297q0 -88 47.5 -134t155.5 -46q139 0 228 68.5t89 189.5v133h-147q-373 0 -373 -211zM291 1556h213l127 -301h-127z" />
<glyph unicode="&#xe1;" horiz-adv-x="1105" d="M84 297q0 89 44.5 155.5t122 104t170 55t200.5 17.5h153v78q0 128 -53 184.5t-176 56.5q-223 0 -246 -192h-170q8 88 46 154.5t97.5 104.5t129.5 56.5t151 18.5q65 0 120 -11t106 -38t86.5 -69.5t57 -110t21.5 -154.5v-707h-170v135q-62 -78 -140.5 -115.5t-193.5 -37.5 q-103 0 -181 32t-126.5 104.5t-48.5 178.5zM254 297q0 -88 47.5 -134t155.5 -46q139 0 228 68.5t89 189.5v133h-147q-373 0 -373 -211zM479 1255l127 301h213l-213 -301h-127z" />
<glyph unicode="&#xe2;" horiz-adv-x="1105" d="M84 297q0 89 44.5 155.5t122 104t170 55t200.5 17.5h153v78q0 128 -53 184.5t-176 56.5q-223 0 -246 -192h-170q8 88 46 154.5t97.5 104.5t129.5 56.5t151 18.5q65 0 120 -11t106 -38t86.5 -69.5t57 -110t21.5 -154.5v-707h-170v135q-62 -78 -140.5 -115.5t-193.5 -37.5 q-103 0 -181 32t-126.5 104.5t-48.5 178.5zM236 1255l221 295h153l219 -295h-124l-175 154l-174 -154h-120zM254 297q0 -88 47.5 -134t155.5 -46q139 0 228 68.5t89 189.5v133h-147q-373 0 -373 -211z" />
<glyph unicode="&#xe3;" horiz-adv-x="1105" d="M84 297q0 89 44.5 155.5t122 104t170 55t200.5 17.5h153v78q0 128 -53 184.5t-176 56.5q-223 0 -246 -192h-170q8 88 46 154.5t97.5 104.5t129.5 56.5t151 18.5q65 0 120 -11t106 -38t86.5 -69.5t57 -110t21.5 -154.5v-707h-170v135q-62 -78 -140.5 -115.5t-193.5 -37.5 q-103 0 -181 32t-126.5 104.5t-48.5 178.5zM240 1264q12 108 69 172.5t137 64.5q37 0 79.5 -22t79.5 -44t61 -22q29 0 51.5 26t30.5 66h122q-12 -108 -68.5 -172.5t-135.5 -64.5q-37 0 -80 22t-80.5 44t-61.5 22q-29 0 -51.5 -26t-30.5 -66h-122zM254 297q0 -88 47.5 -134 t155.5 -46q139 0 228 68.5t89 189.5v133h-147q-373 0 -373 -211z" />
<glyph unicode="&#xe4;" horiz-adv-x="1105" d="M84 297q0 89 44.5 155.5t122 104t170 55t200.5 17.5h153v78q0 128 -53 184.5t-176 56.5q-223 0 -246 -192h-170q8 88 46 154.5t97.5 104.5t129.5 56.5t151 18.5q65 0 120 -11t106 -38t86.5 -69.5t57 -110t21.5 -154.5v-707h-170v135q-62 -78 -140.5 -115.5t-193.5 -37.5 q-103 0 -181 32t-126.5 104.5t-48.5 178.5zM254 297q0 -88 47.5 -134t155.5 -46q139 0 228 68.5t89 189.5v133h-147q-373 0 -373 -211zM254 1407q0 44 32 76.5t76 32.5t76.5 -32.5t32.5 -76.5t-32.5 -76.5t-76.5 -32.5t-76 32.5t-32 76.5zM639 1407q0 44 32.5 76.5 t76.5 32.5t76 -32.5t32 -76.5t-32 -76.5t-76 -32.5t-76.5 32.5t-32.5 76.5z" />
<glyph unicode="&#xe5;" horiz-adv-x="1105" d="M84 297q0 89 44.5 155.5t122 104t170 55t200.5 17.5h153v78q0 128 -53 184.5t-176 56.5q-223 0 -246 -192h-170q8 88 46 154.5t97.5 104.5t129.5 56.5t151 18.5q65 0 120 -11t106 -38t86.5 -69.5t57 -110t21.5 -154.5v-707h-170v135q-62 -78 -140.5 -115.5t-193.5 -37.5 q-103 0 -181 32t-126.5 104.5t-48.5 178.5zM254 297q0 -88 47.5 -134t155.5 -46q139 0 228 68.5t89 189.5v133h-147q-373 0 -373 -211zM336 1438q0 88 64 150.5t155 62.5t155 -62.5t64 -150.5t-64 -150.5t-155 -62.5t-155 62.5t-64 150.5zM446 1438q0 -51 31 -85t78 -34 t78 34t31 85t-31 84.5t-78 33.5t-78 -33.5t-31 -84.5z" />
<glyph unicode="&#xe6;" horiz-adv-x="1802" d="M84 297q0 90 43.5 157.5t119.5 106t167.5 56.5t199.5 18h160v70q0 127 -55 185t-174 58q-223 0 -246 -192h-170q8 88 46 154.5t97.5 104.5t129.5 56.5t151 18.5q255 0 336 -183q130 183 360 183q74 0 140 -18t126 -58.5t104 -101t69.5 -151.5t25.5 -204v-51h-776 q6 -186 88 -284.5t238 -98.5q238 0 272 186h170q-27 -158 -146.5 -242.5t-297.5 -84.5q-134 0 -238 58t-166 163q-74 -116 -172.5 -168.5t-245.5 -52.5q-103 0 -181 32t-126.5 104.5t-48.5 178.5zM254 297q0 -88 47.5 -134t155.5 -46q139 0 228 68.5t89 189.5v131h-153 q-367 0 -367 -209zM944 635h596q-12 164 -85.5 238.5t-205.5 74.5q-124 0 -204.5 -83.5t-100.5 -229.5z" />
<glyph unicode="&#xe7;" horiz-adv-x="1167" d="M92 524v17q0 120 41 223.5t111 174.5t165.5 111t202.5 40q87 0 163 -21t140.5 -64t107 -117t54.5 -173h-168q-19 121 -98.5 177t-198.5 56q-150 0 -247 -111t-97 -296v-17q0 -192 95.5 -296.5t254.5 -104.5q120 0 207.5 68.5t100.5 193.5h157q-17 -168 -136 -279.5 t-298 -121.5l-49 -93q77 10 135 -33.5t58 -131.5q0 -79 -59 -121.5t-148 -42.5q-88 0 -143.5 47.5t-61.5 124.5h111q7 -32 29.5 -53t58.5 -21q38 0 60 20.5t22 53.5q0 32 -20.5 50.5t-53.5 18.5q-31 0 -58 -16l-65 57l78 142q-200 24 -325.5 168.5t-125.5 369.5z" />
<glyph unicode="&#xe8;" horiz-adv-x="1163" d="M92 524v17q0 243 140.5 396t361.5 153q76 0 145 -18.5t131 -59.5t107 -101.5t71.5 -151t26.5 -202.5v-55h-807q6 -184 93.5 -281.5t250.5 -97.5q251 0 285 186h170q-27 -158 -149.5 -242.5t-307.5 -84.5q-229 0 -373.5 148.5t-144.5 393.5zM274 639h627q-22 309 -307 309 q-129 0 -213.5 -82.5t-106.5 -226.5zM330 1556h213l127 -301h-127z" />
<glyph unicode="&#xe9;" horiz-adv-x="1163" d="M92 524v17q0 243 140.5 396t361.5 153q76 0 145 -18.5t131 -59.5t107 -101.5t71.5 -151t26.5 -202.5v-55h-807q6 -184 93.5 -281.5t250.5 -97.5q251 0 285 186h170q-27 -158 -149.5 -242.5t-307.5 -84.5q-229 0 -373.5 148.5t-144.5 393.5zM274 639h627q-22 309 -307 309 q-129 0 -213.5 -82.5t-106.5 -226.5zM518 1255l127 301h213l-213 -301h-127z" />
<glyph unicode="&#xea;" horiz-adv-x="1163" d="M92 524v17q0 243 140.5 396t361.5 153q76 0 145 -18.5t131 -59.5t107 -101.5t71.5 -151t26.5 -202.5v-55h-807q6 -184 93.5 -281.5t250.5 -97.5q251 0 285 186h170q-27 -158 -149.5 -242.5t-307.5 -84.5q-229 0 -373.5 148.5t-144.5 393.5zM274 639h627q-22 309 -307 309 q-129 0 -213.5 -82.5t-106.5 -226.5zM297 1255l221 295h154l219 -295h-125l-174 154l-174 -154h-121z" />
<glyph unicode="&#xeb;" horiz-adv-x="1163" d="M92 524v17q0 243 140.5 396t361.5 153q76 0 145 -18.5t131 -59.5t107 -101.5t71.5 -151t26.5 -202.5v-55h-807q6 -184 93.5 -281.5t250.5 -97.5q251 0 285 186h170q-27 -158 -149.5 -242.5t-307.5 -84.5q-229 0 -373.5 148.5t-144.5 393.5zM274 639h627q-22 309 -307 309 q-129 0 -213.5 -82.5t-106.5 -226.5zM293 1407q0 44 32 76.5t76 32.5t76.5 -32.5t32.5 -76.5t-32.5 -76.5t-76.5 -32.5t-76 32.5t-32 76.5zM678 1407q0 44 32 76.5t76 32.5t76.5 -32.5t32.5 -76.5t-32.5 -76.5t-76.5 -32.5t-76 32.5t-32 76.5z" />
<glyph unicode="&#xec;" horiz-adv-x="522" d="M-4 1556h213l127 -301h-127zM176 0v1071h170v-1071h-170z" />
<glyph unicode="&#xed;" horiz-adv-x="522" d="M176 0v1071h170v-1071h-170zM184 1255l127 301h213l-213 -301h-127z" />
<glyph unicode="&#xee;" horiz-adv-x="522" d="M-37 1255l221 295h154l219 -295h-125l-174 154l-174 -154h-121zM176 0v1071h170v-1071h-170z" />
<glyph unicode="&#xef;" horiz-adv-x="522" d="M-33 1407q0 44 32.5 76.5t76.5 32.5t76 -32.5t32 -76.5t-32 -76.5t-76 -32.5t-76.5 32.5t-32.5 76.5zM176 0v1071h170v-1071h-170zM336 1407q0 44 32 76.5t76 32.5t76.5 -32.5t32.5 -76.5t-32.5 -76.5t-76.5 -32.5t-76 32.5t-32 76.5z" />
<glyph unicode="&#xf0;" d="M92 526v17q0 118 39.5 221t106 174t155.5 111.5t187 40.5q189 0 309 -148q-94 186 -281 367l-229 -135l-60 98l199 117q-108 95 -254 194h219q97 -55 172 -113l170 101l60 -101l-137 -79q81 -75 148.5 -160t125.5 -187.5t90.5 -221.5t32.5 -240v-45q0 -242 -150 -398.5 t-379 -156.5q-228 0 -376 154.5t-148 389.5zM268 526q0 -184 94 -293.5t256 -109.5q160 0 255.5 110.5t95.5 292.5v15q0 186 -94 296.5t-254 110.5q-161 0 -257 -110t-96 -295v-17z" />
<glyph unicode="&#xf1;" horiz-adv-x="1224" d="M172 0v1071h170v-170q40 81 129.5 135t214.5 54q175 0 276 -105t101 -328v-657h-170v670q0 141 -61.5 206.5t-190.5 65.5q-126 0 -212.5 -77.5t-86.5 -215.5v-649h-170zM295 1264q12 108 69.5 172.5t137.5 64.5q37 0 79 -22t79 -44t61 -22q29 0 51.5 26t30.5 66h123 q-12 -107 -69 -172t-136 -65q-37 0 -80 22t-80 44t-61 22q-29 0 -51.5 -26t-30.5 -66h-123z" />
<glyph unicode="&#xf2;" d="M92 526v17q0 240 149 393.5t377 153.5q229 0 378 -152.5t149 -392.5v-17q0 -241 -149.5 -393.5t-379.5 -152.5q-228 0 -376 154.5t-148 389.5zM268 526q0 -184 94 -293.5t256 -109.5q160 0 255.5 110.5t95.5 292.5v15q0 186 -95.5 296.5t-255.5 110.5q-161 0 -255.5 -110 t-94.5 -295v-17zM354 1556h213l127 -301h-127z" />
<glyph unicode="&#xf3;" d="M92 526v17q0 240 149 393.5t377 153.5q229 0 378 -152.5t149 -392.5v-17q0 -241 -149.5 -393.5t-379.5 -152.5q-228 0 -376 154.5t-148 389.5zM268 526q0 -184 94 -293.5t256 -109.5q160 0 255.5 110.5t95.5 292.5v15q0 186 -95.5 296.5t-255.5 110.5q-161 0 -255.5 -110 t-94.5 -295v-17zM543 1255l127 301h213l-213 -301h-127z" />
<glyph unicode="&#xf4;" d="M92 526v17q0 240 149 393.5t377 153.5q229 0 378 -152.5t149 -392.5v-17q0 -241 -149.5 -393.5t-379.5 -152.5q-228 0 -376 154.5t-148 389.5zM268 526q0 -184 94 -293.5t256 -109.5q160 0 255.5 110.5t95.5 292.5v15q0 186 -95.5 296.5t-255.5 110.5q-161 0 -255.5 -110 t-94.5 -295v-17zM322 1255l221 295h153l219 -295h-124l-175 154l-174 -154h-120z" />
<glyph unicode="&#xf5;" d="M92 526v17q0 240 149 393.5t377 153.5q229 0 378 -152.5t149 -392.5v-17q0 -241 -149.5 -393.5t-379.5 -152.5q-228 0 -376 154.5t-148 389.5zM268 526q0 -184 94 -293.5t256 -109.5q160 0 255.5 110.5t95.5 292.5v15q0 186 -95.5 296.5t-255.5 110.5q-161 0 -255.5 -110 t-94.5 -295v-17zM303 1264q12 108 69.5 172.5t137.5 64.5q37 0 79 -22t79 -44t61 -22q29 0 51.5 26t30.5 66h123q-12 -107 -69 -172t-136 -65q-37 0 -80 22t-80 44t-61 22q-29 0 -51.5 -26t-30.5 -66h-123z" />
<glyph unicode="&#xf6;" d="M92 526v17q0 240 149 393.5t377 153.5q229 0 378 -152.5t149 -392.5v-17q0 -241 -149.5 -393.5t-379.5 -152.5q-228 0 -376 154.5t-148 389.5zM268 526q0 -184 94 -293.5t256 -109.5q160 0 255.5 110.5t95.5 292.5v15q0 186 -95.5 296.5t-255.5 110.5q-161 0 -255.5 -110 t-94.5 -295v-17zM317 1407q0 44 32.5 76.5t76.5 32.5t76.5 -32.5t32.5 -76.5t-32.5 -76.5t-76.5 -32.5t-76.5 32.5t-32.5 76.5zM702 1407q0 44 32.5 76.5t76.5 32.5t76.5 -32.5t32.5 -76.5t-32.5 -76.5t-76.5 -32.5t-76.5 32.5t-32.5 76.5z" />
<glyph unicode="&#xf7;" horiz-adv-x="1062" d="M74 629v143h915v-143h-915zM399 313q0 55 38.5 93t92.5 38t93 -38t39 -93t-39 -93t-93 -38t-92.5 38t-38.5 93zM399 1087q0 55 38.5 93.5t92.5 38.5t93 -38.5t39 -93.5t-39 -93t-93 -38t-92.5 38t-38.5 93z" />
<glyph unicode="&#xf8;" d="M47 2l158 174q-113 144 -113 350v17q0 240 149 393.5t377 153.5q186 0 320 -103l139 152l90 -78l-143 -158q121 -150 121 -358v-17q0 -241 -149.5 -393.5t-379.5 -152.5q-189 0 -327 110l-152 -168zM268 526q0 -133 49 -227l519 573q-88 76 -218 76q-161 0 -255.5 -110 t-94.5 -295v-17zM389 205q91 -82 229 -82q160 0 255.5 110.5t95.5 292.5v15q0 133 -56 239z" />
<glyph unicode="&#xf9;" horiz-adv-x="1216" d="M162 393v678h170v-670q0 -140 60.5 -206t187.5 -66q122 0 208 77.5t86 215.5v649h170v-1071h-170v170q-40 -81 -128.5 -134.5t-210.5 -53.5q-170 0 -271.5 100t-101.5 311zM344 1556h213l127 -301h-127z" />
<glyph unicode="&#xfa;" horiz-adv-x="1216" d="M162 393v678h170v-670q0 -140 60.5 -206t187.5 -66q122 0 208 77.5t86 215.5v649h170v-1071h-170v170q-40 -81 -128.5 -134.5t-210.5 -53.5q-170 0 -271.5 100t-101.5 311zM532 1255l127 301h213l-213 -301h-127z" />
<glyph unicode="&#xfb;" horiz-adv-x="1216" d="M162 393v678h170v-670q0 -140 60.5 -206t187.5 -66q122 0 208 77.5t86 215.5v649h170v-1071h-170v170q-40 -81 -128.5 -134.5t-210.5 -53.5q-170 0 -271.5 100t-101.5 311zM311 1255l221 295h154l219 -295h-125l-174 154l-174 -154h-121z" />
<glyph unicode="&#xfc;" horiz-adv-x="1216" d="M162 393v678h170v-670q0 -140 60.5 -206t187.5 -66q122 0 208 77.5t86 215.5v649h170v-1071h-170v170q-40 -81 -128.5 -134.5t-210.5 -53.5q-170 0 -271.5 100t-101.5 311zM307 1407q0 44 32.5 76.5t76.5 32.5t76 -32.5t32 -76.5t-32 -76.5t-76 -32.5t-76.5 32.5 t-32.5 76.5zM692 1407q0 44 32.5 76.5t76.5 32.5t76 -32.5t32 -76.5t-32 -76.5t-76 -32.5t-76.5 32.5t-32.5 76.5z" />
<glyph unicode="&#xfd;" horiz-adv-x="1083" d="M51 1071h182l328 -768l297 768h174l-592 -1444h-172l203 484zM481 1255l127 301h213l-213 -301h-127z" />
<glyph unicode="&#xfe;" horiz-adv-x="1284" d="M172 -373v1956h170v-692q48 82 149.5 140.5t213.5 58.5q215 0 351 -146.5t136 -392.5v-16q0 -247 -133.5 -400t-353.5 -153q-125 0 -219.5 54.5t-143.5 139.5v-549h-170zM336 526q0 -199 95 -301t257 -102q159 0 243.5 104t84.5 299v17q0 194 -94 299.5t-236 105.5 q-156 0 -253 -103.5t-97 -301.5v-17z" />
<glyph unicode="&#xff;" horiz-adv-x="1083" d="M51 1071h182l328 -768l297 768h174l-592 -1444h-172l203 484zM256 1407q0 44 32.5 76.5t76.5 32.5t76 -32.5t32 -76.5t-32 -76.5t-76 -32.5t-76.5 32.5t-32.5 76.5zM641 1407q0 44 32.5 76.5t76.5 32.5t76 -32.5t32 -76.5t-32 -76.5t-76 -32.5t-76.5 32.5t-32.5 76.5z " />
<glyph unicode="&#x152;" horiz-adv-x="1955" d="M113 719v18q0 155 45.5 285.5t134.5 230t233.5 155.5t331.5 56h977v-145h-643v-498h512v-145h-512v-531h680v-145h-1018q-184 0 -327.5 54.5t-233 152.5t-135 227.5t-45.5 284.5zM297 719q0 -130 32.5 -233t99.5 -181t177 -120t258 -42h150v1176h-152q-277 0 -421 -155 t-144 -429v-16z" />
<glyph unicode="&#x153;" horiz-adv-x="2037" d="M92 526v17q0 240 149 393.5t377 153.5q149 0 261.5 -68.5t173.5 -190.5q58 122 164.5 190.5t250.5 68.5q97 0 181 -30.5t152.5 -91.5t108.5 -167t40 -244v-55h-807q6 -184 93.5 -281.5t250.5 -97.5q251 0 285 186h170q-27 -158 -149.5 -242.5t-307.5 -84.5 q-151 0 -262 66.5t-170 189.5q-62 -122 -175 -189t-262 -67q-228 0 -376 154.5t-148 389.5zM268 526q0 -184 94 -293.5t256 -109.5q160 0 255.5 110.5t95.5 292.5v15q0 186 -95.5 296.5t-255.5 110.5q-161 0 -255.5 -110t-94.5 -295v-17zM1149 639h627q-22 309 -308 309 q-129 0 -213 -82.5t-106 -226.5z" />
<glyph unicode="&#x178;" horiz-adv-x="1224" d="M47 1464h201l383 -680l368 680h179l-463 -827v-637h-178v639zM295 1724q0 44 32 76.5t76 32.5t76.5 -32.5t32.5 -76.5t-32.5 -76t-76.5 -32t-76 32t-32 76zM711 1724q0 44 32 76.5t76 32.5t76.5 -32.5t32.5 -76.5t-32.5 -76t-76.5 -32t-76 32t-32 76z" />
<glyph unicode="&#x2c6;" horiz-adv-x="819" d="M113 1255l221 295h153l220 -295h-125l-174 154l-175 -154h-120z" />
<glyph unicode="&#x2dc;" horiz-adv-x="819" d="M94 1264q12 108 69.5 172.5t137.5 64.5q37 0 79 -22t79 -44t61 -22q29 0 51.5 26t30.5 66h123q-12 -107 -69 -172t-136 -65q-37 0 -80 22t-80 44t-61 22q-29 0 -51.5 -26t-30.5 -66h-123z" />
<glyph unicode="&#x2000;" horiz-adv-x="990" />
<glyph unicode="&#x2001;" horiz-adv-x="1980" />
<glyph unicode="&#x2002;" horiz-adv-x="990" />
<glyph unicode="&#x2003;" horiz-adv-x="1980" />
<glyph unicode="&#x2004;" horiz-adv-x="660" />
<glyph unicode="&#x2005;" horiz-adv-x="495" />
<glyph unicode="&#x2006;" horiz-adv-x="330" />
<glyph unicode="&#x2007;" horiz-adv-x="330" />
<glyph unicode="&#x2008;" horiz-adv-x="247" />
<glyph unicode="&#x2009;" horiz-adv-x="396" />
<glyph unicode="&#x200a;" horiz-adv-x="110" />
<glyph unicode="&#x2010;" horiz-adv-x="684" d="M123 483v160h438v-160h-438z" />
<glyph unicode="&#x2011;" horiz-adv-x="684" d="M123 483v160h438v-160h-438z" />
<glyph unicode="&#x2012;" horiz-adv-x="684" d="M123 483v160h438v-160h-438z" />
<glyph unicode="&#x2013;" horiz-adv-x="1077" d="M92 494v143h893v-143h-893z" />
<glyph unicode="&#x2014;" horiz-adv-x="1812" d="M92 494v143h1628v-143h-1628z" />
<glyph unicode="&#x2018;" horiz-adv-x="522" d="M82 1073l240 414l104 -53l-182 -435z" />
<glyph unicode="&#x2019;" horiz-adv-x="522" d="M96 1053l183 434l161 -74l-239 -414z" />
<glyph unicode="&#x201a;" horiz-adv-x="522" d="M96 -180l183 434l161 -74l-239 -413z" />
<glyph unicode="&#x201c;" horiz-adv-x="884" d="M82 1073l240 414l104 -53l-182 -435zM444 1073l240 414l104 -53l-182 -435z" />
<glyph unicode="&#x201d;" horiz-adv-x="884" d="M96 1053l183 434l161 -74l-239 -414zM459 1053l182 434l162 -74l-240 -414z" />
<glyph unicode="&#x201e;" horiz-adv-x="884" d="M96 -180l183 434l161 -74l-239 -413zM459 -180l182 434l162 -74l-240 -413z" />
<glyph unicode="&#x2022;" horiz-adv-x="679" d="M102 627q0 99 68.5 168t169.5 69q102 0 170 -69t68 -168t-68 -168.5t-170 -69.5q-101 0 -169.5 69.5t-68.5 168.5z" />
<glyph unicode="&#x2026;" horiz-adv-x="1650" d="M158 121q0 55 38.5 93t92.5 38t92.5 -38t38.5 -93t-38.5 -93t-92.5 -38t-92.5 38t-38.5 93zM694 121q0 55 38.5 93t92.5 38t92.5 -38t38.5 -93t-38.5 -93t-92.5 -38t-92.5 38t-38.5 93zM1231 121q0 55 38.5 93t92.5 38t92.5 -38t38.5 -93t-38.5 -93t-92.5 -38t-92.5 38 t-38.5 93z" />
<glyph unicode="&#x202f;" horiz-adv-x="396" />
<glyph unicode="&#x2039;" horiz-adv-x="659" d="M121 535l266 364h168l-256 -364l256 -365h-168z" />
<glyph unicode="&#x203a;" horiz-adv-x="659" d="M104 170l256 365l-256 364h168l267 -364l-267 -365h-168z" />
<glyph unicode="&#x205f;" horiz-adv-x="495" />
<glyph unicode="&#x20ac;" horiz-adv-x="1380" d="M66 528v119h145v160h-145v119h151q13 119 54.5 219.5t109.5 176t166 118.5t217 43q211 0 343 -118.5t157 -330.5h-168q-22 147 -109.5 228t-222.5 81q-161 0 -256.5 -111t-116.5 -306h490l-23 -119h-471v-160h440l-22 -119h-412q21 -192 115.5 -296.5t259.5 -104.5 q143 0 232 85.5t114 250.5h166q-25 -226 -161 -353.5t-351 -127.5q-229 0 -376 151t-175 395h-151z" />
<glyph unicode="&#x2122;" horiz-adv-x="1466" d="M70 1374v90h514v-90h-199v-569h-115v569h-200zM700 805v659h158l184 -463l181 463h159v-659h-114v514l-211 -514h-39l-213 514v-514h-105z" />
<glyph unicode="&#x25fc;" horiz-adv-x="1075" d="M0 0v1075h1075v-1075h-1075z" />
<glyph unicode="&#xfb01;" horiz-adv-x="1222" d="M55 928v143h154v174q0 165 79.5 254.5t235.5 89.5q73 0 117 -16v-143q-47 18 -111 18q-151 0 -151 -184v-193h262v-143h-262v-928h-170v928h-154zM846 1407q0 46 33 79.5t79 33.5t79.5 -33.5t33.5 -79.5t-33.5 -79.5t-79.5 -33.5t-79 33.5t-33 79.5zM877 0v1071h170 v-1071h-170z" />
<glyph unicode="&#xfb02;" horiz-adv-x="1224" d="M55 928v143h154v174q0 165 79.5 254.5t235.5 89.5q73 0 117 -16v-143q-47 18 -111 18q-151 0 -151 -184v-193h262v-143h-262v-928h-170v928h-154zM877 0v1583h172v-1583h-172z" />
</font>
</defs>
</svg>
